<?xml version="1.0" standalone="no"?>
<!DOCTYPE svg PUBLIC "-//W3C//DTD SVG 1.1//EN" "http://www.w3.org/Graphics/SVG/1.1/DTD/svg11.dtd" >
<svg xmlns="http://www.w3.org/2000/svg">
<metadata>Generated by IcoMoon</metadata>
<defs>
<font id="rhicons" horiz-adv-x="1024">
<font-face units-per-em="1024" ascent="960" descent="-64" />
<missing-glyph horiz-adv-x="1024" />
<glyph unicode="&#x20;" horiz-adv-x="512" d="" />
<glyph unicode="&#xe803;" glyph-name="magic-wand" d="M588.8 614.4c-14.139 0-25.6 11.462-25.6 25.6 0 70.579-57.421 128-128 128-14.138 0-25.6 11.462-25.6 25.6s11.462 25.6 25.6 25.6c70.579 0 128 57.421 128 128 0 14.138 11.461 25.6 25.6 25.6s25.6-11.462 25.6-25.6c0-70.579 57.421-128 128-128 14.139 0 25.6-11.462 25.6-25.6s-11.461-25.6-25.6-25.6c-70.579 0-128-57.421-128-128 0-14.138-11.461-25.6-25.6-25.6zM527.426 793.6c25.11-15.136 46.238-36.264 61.374-61.376 15.136 25.112 36.264 46.24 61.376 61.376-25.112 15.136-46.24 36.264-61.376 61.376-15.136-25.112-36.264-46.24-61.374-61.376zM76.8 460.8c-14.138 0-25.6 11.462-25.6 25.6 0 14.115-11.485 25.6-25.6 25.6-14.138 0-25.6 11.462-25.6 25.6s11.462 25.6 25.6 25.6c14.115 0 25.6 11.485 25.6 25.6 0 14.138 11.462 25.6 25.6 25.6s25.6-11.462 25.6-25.6c0-14.115 11.485-25.6 25.6-25.6 14.138 0 25.6-11.462 25.6-25.6s-11.462-25.6-25.6-25.6c-14.115 0-25.6-11.485-25.6-25.6 0-14.138-11.462-25.6-25.6-25.6zM929.101 156.704l-541.995 541.994c-14.466 14.466-33.752 22.432-54.306 22.432s-39.84-7.966-54.306-22.432l-29.992-29.992c-14.466-14.466-22.432-33.752-22.432-54.306s7.966-39.84 22.432-54.306l541.994-541.992c14.464-14.466 33.75-22.434 54.304-22.434s39.84 7.965 54.306 22.434l29.994 29.992c14.466 14.464 22.432 33.752 22.432 54.304s-7.965 39.842-22.43 54.306zM284.706 632.502l29.992 29.992c4.795 4.795 11.224 7.435 18.102 7.435s13.307-2.64 18.102-7.435l73.691-73.693-66.197-66.197-73.691 73.691c-9.982 9.984-9.982 26.224 0 36.206zM892.894 84.298l-29.994-29.992c-4.794-4.794-11.224-7.434-18.099-7.434s-13.306 2.64-18.099 7.434l-432.102 432.099 66.197 66.195 432.098-432.099c9.981-9.981 9.981-26.222 0-36.203zM179.2 716.8c-14.138 0-25.6 11.462-25.6 25.6 0 42.347-34.453 76.8-76.8 76.8-14.138 0-25.6 11.462-25.6 25.6s11.462 25.6 25.6 25.6c42.347 0 76.8 34.453 76.8 76.8 0 14.138 11.462 25.6 25.6 25.6s25.6-11.462 25.6-25.6c0-42.347 34.453-76.8 76.8-76.8 14.138 0 25.6-11.462 25.6-25.6s-11.462-25.6-25.6-25.6c-42.347 0-76.8-34.453-76.8-76.8 0-14.138-11.462-25.6-25.6-25.6zM153.52 844.8c9.725-7.304 18.376-15.957 25.68-25.68 7.304 9.725 15.957 18.376 25.68 25.68-9.725 7.304-18.376 15.957-25.68 25.68-7.304-9.723-15.957-18.376-25.68-25.68zM179.2 204.8c-14.138 0-25.6 11.461-25.6 25.6 0 42.347-34.453 76.8-76.8 76.8-14.138 0-25.6 11.461-25.6 25.6s11.462 25.6 25.6 25.6c42.347 0 76.8 34.453 76.8 76.8 0 14.139 11.462 25.6 25.6 25.6s25.6-11.461 25.6-25.6c0-42.347 34.453-76.8 76.8-76.8 14.138 0 25.6-11.461 25.6-25.6s-11.462-25.6-25.6-25.6c-42.347 0-76.8-34.453-76.8-76.8 0-14.139-11.462-25.6-25.6-25.6zM153.52 332.8c9.725-7.302 18.376-15.957 25.68-25.68 7.304 9.723 15.957 18.374 25.68 25.68-9.725 7.302-18.376 15.957-25.68 25.68-7.304-9.723-15.957-18.378-25.68-25.68z" />
<glyph unicode="&#xe80a;" glyph-name="cloud-upload1" d="M819.52 153.6h-179.52c-14.139 0-25.6 11.461-25.6 25.6s11.461 25.6 25.6 25.6h179.52c84.518 0 153.28 68.762 153.28 153.28s-68.762 153.28-153.28 153.28c-18.005 0-35.626-3.086-52.368-9.173-11.168-4.056-23.654 0.099-30.163 10.035-6.507 9.938-5.323 23.048 2.859 31.659 18.154 19.106 28.152 44.15 28.152 70.518 0 56.464-45.936 102.4-102.4 102.4-32.858 0-62.912-15.187-82.456-41.667-11.704-15.859-18.533-34.638-19.746-54.307-0.67-10.867-8.141-20.122-18.622-23.069s-21.682 1.059-27.915 9.984l-0.238 0.342c-5.49 7.795-11.549 15.443-17.952 22.653-48.587 54.694-118.374 86.064-191.47 86.064-141.158 0-256-114.842-256-256 0-141.16 114.842-256 256-256h128c14.138 0 25.6-11.461 25.6-25.6s-11.462-25.6-25.6-25.6h-128c-169.39 0-307.2 137.81-307.2 307.2s137.81 307.2 307.2 307.2c82.050 0 160.621-32.933 218.142-90.901 4.47 9.989 10.026 19.52 16.608 28.438 28.867 39.112 75.090 62.462 123.65 62.462 84.696 0 153.6-68.904 153.6-153.6 0-17.976-3.099-35.542-9.035-52.050 3.11 0.139 6.23 0.21 9.357 0.21 112.75 0 204.48-91.73 204.48-204.48-0.002-112.75-91.731-204.48-204.482-204.48zM658.101 350.901l-102.4 102.4c-9.997 9.997-26.206 9.997-36.203 0l-102.4-102.4c-9.997-9.997-9.997-26.206 0-36.203s26.206-9.997 36.205 0l58.698 58.698v-194.195c0-14.139 11.461-25.6 25.6-25.6s25.6 11.461 25.6 25.6v194.195l58.699-58.698c4.998-4.998 11.549-7.498 18.101-7.498s13.102 2.499 18.101 7.499c9.998 9.997 9.998 26.205 0 36.202z" />
<glyph unicode="&#xe82d;" glyph-name="store" d="M921.6 486.4v51.2c0 3.974-0.925 7.894-2.702 11.448l-102.4 204.8c-4.336 8.674-13.2 14.152-22.898 14.152h-614.4c-9.698 0-18.562-5.478-22.898-14.152l-102.4-204.8c-1.778-3.554-2.702-7.474-2.702-11.448v-51.2c0-41.786 20.131-78.955 51.2-102.33v-332.87h-25.6c-14.138 0-25.6-11.461-25.6-25.6s11.462-25.6 25.6-25.6h819.2c14.139 0 25.6 11.461 25.6 25.6s-11.461 25.6-25.6 25.6h-25.598v332.87c31.067 23.376 51.198 60.544 51.198 102.33zM588.8 409.6c-42.347 0-76.8 34.453-76.8 76.8v25.6h153.6v-25.6c0-42.347-34.453-76.8-76.8-76.8zM102.4 486.4v25.6h153.6v-25.6c0-42.347-34.453-76.8-76.8-76.8s-76.8 34.453-76.8 76.8zM460.8 716.8v-153.6h-146.413l38.4 153.6h108.013zM620.013 716.8l38.4-153.6h-146.413v153.6h108.013zM307.2 512h153.6v-25.6c0-42.347-34.453-76.8-76.8-76.8s-76.8 34.453-76.8 76.8v25.6zM716.8 512h153.6v-25.6c0-42.347-34.453-76.8-76.8-76.8s-76.8 34.453-76.8 76.8v25.6zM854.578 563.2h-143.39l-38.4 153.6h104.99l76.8-153.6zM195.022 716.8h104.99l-38.4-153.6h-143.39l76.8 153.6zM153.6 360.974c8.274-1.686 16.835-2.574 25.6-2.574 41.827 0 79.029 20.168 102.4 51.29 23.371-31.122 60.573-51.29 102.4-51.29s79.029 20.168 102.4 51.29c18.474-24.598 45.589-42.354 76.8-48.714v-309.776h-409.6v309.774zM819.202 51.2h-204.802v309.774c31.211 6.362 58.325 24.115 76.8 48.714 23.371-31.12 60.573-51.288 102.4-51.288 8.766 0 17.326 0.89 25.602 2.576v-309.776zM716.8 230.4c0-14.138-11.462-25.6-25.6-25.6s-25.6 11.462-25.6 25.6c0 14.138 11.462 25.6 25.6 25.6s25.6-11.462 25.6-25.6zM230.4 204.8c-6.552 0-13.102 2.499-18.102 7.499-9.997 9.997-9.997 26.206 0 36.203l51.2 51.2c9.998 9.997 26.206 9.997 36.205 0 9.997-9.997 9.997-26.206 0-36.203l-51.2-51.2c-5-5-11.55-7.499-18.102-7.499zM281.6 102.4c-6.552 0-13.102 2.499-18.101 7.499-9.998 9.997-9.998 26.206 0 36.203l153.6 153.6c9.997 9.997 26.206 9.997 36.203 0 9.998-9.997 9.998-26.206 0-36.203l-153.6-153.6c-5-5-11.55-7.499-18.102-7.499zM435.2 102.4c-6.552 0-13.102 2.499-18.102 7.499-9.997 9.997-9.997 26.206 0 36.203l51.2 51.2c9.998 9.997 26.206 9.997 36.205 0s9.998-26.206 0-36.203l-51.2-51.2c-5-5-11.55-7.499-18.102-7.499z" />
<glyph unicode="&#xe83b;" glyph-name="tablet" d="M844.8-51.2h-665.6c-42.347 0-76.8 34.451-76.8 76.8v870.4c0 42.347 34.453 76.8 76.8 76.8h665.6c42.349 0 76.8-34.453 76.8-76.8v-870.4c0-42.349-34.451-76.8-76.8-76.8zM179.2 921.6c-14.115 0-25.6-11.485-25.6-25.6v-870.4c0-14.115 11.485-25.6 25.6-25.6h665.6c14.115 0 25.6 11.485 25.6 25.6v870.4c0 14.115-11.485 25.6-25.6 25.6h-665.6zM537.6 51.2h-51.2c-14.138 0-25.6 11.461-25.6 25.6s11.462 25.6 25.6 25.6h51.2c14.139 0 25.6-11.461 25.6-25.6s-11.461-25.6-25.6-25.6zM793.6 153.6h-563.2c-14.138 0-25.6 11.461-25.6 25.6v665.6c0 14.138 11.462 25.6 25.6 25.6h563.2c14.139 0 25.6-11.462 25.6-25.6v-665.6c0-14.139-11.461-25.6-25.6-25.6zM256 204.8h512v614.4h-512v-614.4z" />
<glyph unicode="&#xe85f;" glyph-name="hourglass1" d="M819.2 793.6v25.6c0 20.061-12.354 37.533-36.715 51.933-17.598 10.402-42.042 19.557-72.651 27.21-59.995 14.997-139.344 23.258-223.434 23.258-84.088 0-163.438-8.261-223.432-23.259-30.61-7.653-55.053-16.806-72.653-27.21-24.362-14.398-36.715-31.87-36.715-51.931v-25.6c0-134.691 81.574-255.944 204.795-307.288v-102.222c-123.221-51.346-204.795-172.598-204.795-307.29v-25.6c0-20.059 12.354-37.533 36.715-51.933 17.6-10.402 42.043-19.557 72.653-27.21 59.994-14.998 139.344-23.258 223.432-23.258 84.090 0 163.438 8.259 223.434 23.258 30.61 7.653 55.053 16.808 72.651 27.21 24.362 14.4 36.715 31.874 36.715 51.933v25.6c0 134.691-81.573 255.944-204.794 307.29v102.222c123.221 51.344 204.794 172.597 204.794 307.288zM287.322 851.491c54.56 12.194 125.261 18.909 199.078 18.909 73.819 0 144.52-6.715 199.080-18.909 58.867-13.157 76.701-27.336 81.366-32.291-4.666-4.955-22.499-19.134-81.366-32.291-54.56-12.194-125.261-18.909-199.080-18.909-73.818 0-144.518 6.715-199.078 18.909-58.869 13.157-76.702 27.336-81.37 32.291 4.667 4.955 22.501 19.134 81.37 32.291zM580.275 342.382c112.285-39.69 187.725-146.419 187.725-265.582v-24.238c-2.141-2.909-16.598-18.92-82.52-33.653-54.56-12.194-125.261-18.909-199.080-18.909-73.818 0-144.52 6.715-199.078 18.907-65.915 14.731-80.378 30.741-82.522 33.653v24.24c0 119.163 75.442 225.893 187.726 265.582 10.229 3.616 17.067 13.286 17.067 24.136v137.363c0 10.85-6.838 20.522-17.069 24.136-101.195 35.768-172.453 125.992-185.544 230.693 15.342-6.923 34.075-13.174 55.986-18.653 59.995-14.997 139.346-23.258 223.434-23.258 84.090 0 163.438 8.261 223.434 23.259 21.91 5.477 40.642 11.73 55.986 18.653-13.093-104.699-84.35-194.923-185.544-230.693-10.23-3.616-17.069-13.288-17.069-24.136v-137.363c0-10.851 6.838-20.522 17.069-24.138zM699.734 126.536c-115.798 40.933-187.734 139.586-187.734 257.464v154.872c30.741 3.022 60.315 11.496 88.202 25.355 12.661 6.293 17.824 21.658 11.531 34.318s-21.658 17.826-34.318 11.531c-28.408-14.118-59.030-21.277-91.014-21.277s-62.605 7.158-91.013 21.278c-12.659 6.29-28.026 1.13-34.318-11.531s-1.13-28.026 11.531-34.318c27.885-13.859 57.461-22.333 88.2-25.355v-154.874c0-117.878-71.936-216.531-187.734-257.464-10.762-3.803-17.706-14.272-17.022-25.666 0.682-11.394 8.826-20.96 19.963-23.453 50.294-11.254 126.824-26.218 210.394-26.218s160.099 14.963 210.394 26.218c11.139 2.494 19.282 12.059 19.965 23.453 0.68 11.394-6.261 21.862-17.024 25.666zM486.4 102.4c-44.885 0-87.093 4.464-124.762 10.478 34.070 21.573 63.706 48.766 87.586 80.626 15.019 20.035 27.45 41.557 37.174 64.211 9.726-22.654 22.155-44.174 37.174-64.211 23.88-31.858 53.515-59.051 87.586-80.626-37.666-6.014-79.874-10.478-124.758-10.478z" />
<glyph unicode="&#xe863;" glyph-name="history" d="M874.038 822.838c-96.704 96.704-225.278 149.962-362.038 149.962-158.432 0-305.912-72.984-402.094-194.938v66.938c0 14.138-11.462 25.6-25.6 25.6s-25.6-11.462-25.6-25.6v-152.154c0-11.71 7.946-21.928 19.296-24.811 4.941-1.256 9.979-0.979 14.555 0.581v-0.003l146.096 49.754c13.384 4.558 20.538 19.102 15.979 32.486s-19.099 20.539-32.486 15.979l-76.304-25.987c86.443 113.066 221.208 180.955 366.158 180.955 254.086 0 460.8-206.714 460.8-460.8s-206.714-460.8-460.8-460.8c-169.778 0-325.323 92.936-405.938 242.541-6.706 12.446-22.235 17.099-34.68 10.392s-17.099-22.234-10.394-34.68c89.56-166.205 262.378-269.453 451.011-269.453 136.76 0 265.334 53.258 362.038 149.962s149.962 225.278 149.962 362.038c0 136.76-53.258 265.334-149.962 362.038zM512 435.2c-4.277 0-8.558 1.069-12.432 3.222l-230.4 128c-12.36 6.866-16.813 22.451-9.946 34.81s22.451 16.813 34.81 9.946l217.080-120.6 268.744 171.021c11.925 7.59 27.75 4.078 35.342-7.854 7.59-11.928 4.074-27.75-7.854-35.341l-281.6-179.2c-4.182-2.662-8.962-4.003-13.744-4.003z" />
<glyph unicode="&#xe86d;" glyph-name="thumbs-up" d="M968.517 398.949c22.662 26.155 35.565 69.381 35.565 110.541 0 27.17-5.899 50.974-17.056 68.842-14.526 23.259-37.762 36.069-65.426 36.069h-134.053c72.966 132.683 91.408 232.587 54.766 297.302-25.534 45.096-72.366 61.098-104.714 61.098-12.811 0-23.65-9.469-25.368-22.165-9.147-67.554-60.811-148.131-141.742-221.074-77.518-69.869-172.765-125.768-270.642-159.208-12.317 26.010-38.811 44.046-69.448 44.046h-153.6c-42.347 0-76.8-34.453-76.8-76.8v-460.8c0-42.347 34.453-76.8 76.8-76.8h153.6c32.437 0 60.222 20.226 71.459 48.718 100.421-12.57 138.195-32.754 174.794-52.314 45.802-24.482 89.062-47.605 230.547-47.605 36.854 0 71.587 9.624 97.8 27.101 25.61 17.074 41.968 41.006 47.4 68.755 20.414 8.283 38.544 27.426 52.454 55.893 13.53 27.688 22.272 63.077 22.272 90.166 0 5.069-0.296 9.726-0.89 14.014 12.944 9.528 24.56 24.243 34.152 43.592 13.837 27.912 22.099 62.866 22.099 93.494 0 21.694-4.027 39.802-11.968 53.822-0.645 1.128-1.312 2.234-2.003 3.31zM230.4 51.2h-153.6c-14.115 0-25.6 11.485-25.6 25.6v460.8c0 14.115 11.485 25.6 25.6 25.6h153.6c14.115 0 25.6-11.485 25.6-25.6v-460.738c0-0.022 0-0.043 0-0.066-0.002-14.114-11.486-25.597-25.6-25.597zM938.944 446.786c-7.739-15.546-15.57-21.186-18.944-21.186-14.139 0-25.6-11.461-25.6-25.6s11.461-25.6 25.6-25.6c2.149 0 3.699 0 5.971-4.008 3.378-5.965 5.315-16.382 5.315-28.582 0-22.77-6.427-49.883-16.771-70.754-10.131-20.437-20.451-27.856-24.915-27.856-14.139 0-25.6-11.461-25.6-25.6 0-9.067 4.715-17.034 11.827-21.582 1.581-16.206-5.976-59.629-25.627-87.947-7.438-10.722-15.238-16.87-21.4-16.87-14.139 0-25.6-11.461-25.6-25.6 0-45.072-49.765-65.6-96-65.6-128.659 0-164.691 19.259-206.413 41.56-38.992 20.84-82.864 44.29-193.587 58.085v419.179c107.558 35.258 212.589 96.114 297.566 172.704 81.554 73.502 135.12 152.979 153.286 226.603 13.933-4.477 29.651-13.896 39.706-31.656 17.096-30.192 29.896-107.299-76.43-284.506-4.746-7.909-4.87-17.758-0.325-25.784s13.053-12.987 22.277-12.987h178.32c10.17 0 16.749-3.586 21.998-11.99 5.986-9.586 9.283-24.402 9.283-41.72 0-21.733-5.211-45.174-13.938-62.702z" />
<glyph unicode="&#xe86e;" glyph-name="thumbs-down" d="M968.517 522.651c22.662-26.155 35.565-69.381 35.565-110.541 0-27.17-5.899-50.974-17.056-68.842-14.526-23.259-37.762-36.069-65.426-36.069h-134.053c72.966-132.683 91.408-232.587 54.766-297.302-25.534-45.096-72.366-61.098-104.714-61.098-12.811 0-23.65 9.469-25.368 22.165-9.147 67.554-60.811 148.131-141.742 221.074-77.518 69.869-172.765 125.768-270.642 159.208-12.317-26.010-38.811-44.046-69.448-44.046h-153.6c-42.347 0-76.8 34.453-76.8 76.8v460.8c0 42.347 34.453 76.8 76.8 76.8h153.6c32.437 0 60.222-20.226 71.459-48.718 100.421 12.57 138.195 32.754 174.794 52.314 45.802 24.482 89.062 47.605 230.547 47.605 36.854 0 71.587-9.624 97.8-27.101 25.61-17.074 41.968-41.006 47.4-68.755 20.414-8.283 38.544-27.426 52.454-55.893 13.53-27.688 22.272-63.077 22.272-90.166 0-5.069-0.296-9.726-0.89-14.014 12.944-9.528 24.56-24.243 34.152-43.592 13.837-27.912 22.099-62.866 22.099-93.494 0-21.694-4.027-39.802-11.968-53.822-0.645-1.128-1.312-2.234-2.003-3.31zM230.4 870.4h-153.6c-14.115 0-25.6-11.485-25.6-25.6v-460.8c0-14.115 11.485-25.6 25.6-25.6h153.6c14.115 0 25.6 11.485 25.6 25.6v460.738c0 0.022 0 0.043 0 0.066-0.002 14.114-11.486 25.597-25.6 25.597zM938.944 474.814c-7.739 15.546-15.57 21.186-18.944 21.186-14.139 0-25.6 11.461-25.6 25.6s11.461 25.6 25.6 25.6c2.149 0 3.699 0 5.971 4.008 3.378 5.965 5.315 16.382 5.315 28.582 0 22.77-6.427 49.883-16.771 70.754-10.131 20.437-20.451 27.856-24.915 27.856-14.139 0-25.6 11.461-25.6 25.6 0 9.067 4.715 17.034 11.827 21.582 1.581 16.206-5.976 59.629-25.627 87.947-7.438 10.722-15.238 16.87-21.4 16.87-14.139 0-25.6 11.461-25.6 25.6 0 45.072-49.765 65.6-96 65.6-128.659 0-164.691-19.259-206.413-41.56-38.992-20.84-82.864-44.29-193.587-58.085v-419.179c107.558-35.258 212.589-96.114 297.566-172.704 81.554-73.502 135.12-152.979 153.286-226.603 13.933 4.477 29.651 13.896 39.706 31.656 17.096 30.192 29.896 107.299-76.43 284.506-4.746 7.909-4.87 17.758-0.325 25.784s13.053 12.987 22.277 12.987h178.32c10.17 0 16.749 3.586 21.998 11.99 5.986 9.586 9.283 24.402 9.283 41.72 0 21.733-5.211 45.174-13.938 62.702z" />
<glyph unicode="&#xe88e;" glyph-name="layers" d="M512 358.4c-3.379 0-6.758 0.669-9.934 2.006l-486.4 204.8c-9.493 3.997-15.666 13.293-15.666 23.594s6.173 19.597 15.666 23.594l486.4 204.8c6.354 2.675 13.517 2.675 19.869 0l486.4-204.8c9.493-3.997 15.666-13.293 15.666-23.594s-6.173-19.597-15.666-23.594l-486.4-204.8c-3.176-1.338-6.555-2.006-9.934-2.006zM91.57 588.8l420.43-177.024 420.43 177.024-420.43 177.024-420.43-177.024zM512 204.8c-3.379 0-6.758 0.669-9.934 2.006l-486.4 204.8c-13.030 5.486-19.146 20.498-13.659 33.528s20.498 19.146 33.528 13.659l476.466-200.618 476.466 200.618c13.029 5.483 28.042-0.63 33.528-13.659 5.488-13.032-0.63-28.042-13.659-33.528l-486.4-204.8c-3.176-1.338-6.555-2.006-9.934-2.006zM512 51.2c-3.379 0-6.758 0.669-9.934 2.006l-486.4 204.8c-13.030 5.486-19.146 20.498-13.659 33.528s20.498 19.144 33.528 13.659l476.466-200.618 476.466 200.618c13.029 5.483 28.042-0.63 33.528-13.659 5.488-13.032-0.63-28.042-13.659-33.528l-486.4-204.8c-3.176-1.338-6.555-2.006-9.934-2.006z" />
<glyph unicode="&#xe88f;" glyph-name="funnel" d="M830.966 803.472c-20.294 13.707-48.59 25.803-84.106 35.95-69.917 19.976-162.418 30.978-260.461 30.978-98.045 0-190.544-11.002-260.461-30.978-35.515-10.147-63.813-22.243-84.104-35.95-32.594-22.016-39.435-45.363-39.435-61.072v-25.6c0-21.894 16.451-58.026 32.701-82.4l250.398-375.598c12.838-19.259 24.101-56.456 24.101-79.602v-153.6c0-8.872 4.594-17.112 12.141-21.776 4.11-2.541 8.778-3.824 13.459-3.824 3.912 0 7.835 0.898 11.448 2.702l102.4 51.2c8.674 4.336 14.152 13.2 14.152 22.898v102.4c0 23.146 11.262 60.342 24.099 79.602l250.4 375.598c16.251 24.373 32.701 60.504 32.701 82.4v25.6c0 15.709-6.842 39.056-39.434 61.072zM240.005 790.194c65.47 18.706 152.974 29.006 246.395 29.006s180.925-10.301 246.394-29.006c70.533-20.154 86.406-41.798 86.406-47.794s-15.874-27.64-86.406-47.794c-65.469-18.706-152.973-29.006-246.394-29.006s-180.925 10.301-246.395 29.006c-70.531 20.154-86.405 41.798-86.405 47.794s15.874 27.64 86.405 47.794zM544.701 287.202c-18.338-27.504-32.701-74.946-32.701-108.002v-86.578l-51.2-25.6v112.178c0 33.056-14.363 80.496-32.701 108.002l-249.859 374.79c14.035-5.997 29.966-11.549 47.699-16.614 69.917-19.976 162.416-30.978 260.461-30.978 98.043 0 190.544 11.002 260.459 30.978 17.733 5.067 33.666 10.619 47.702 16.616l-249.861-374.792z" />
<glyph unicode="&#xe8a3;" glyph-name="sort-alpha-asc" d="M453.301 222.901c-9.997 9.997-26.206 9.997-36.203 0l-161.098-161.098v885.397c0 14.138-11.462 25.6-25.6 25.6s-25.6-11.462-25.6-25.6v-885.397l-161.099 161.098c-9.997 9.997-26.206 9.997-36.203 0s-9.998-26.206 0-36.203l204.8-204.8c5-4.998 11.55-7.498 18.102-7.498s13.102 2.499 18.101 7.499l204.8 204.8c9.998 9.997 9.998 26.205 0 36.202zM1021.93 598.885l-153.6 358.4c-4.032 9.413-13.29 15.515-23.53 15.515s-19.498-6.102-23.53-15.515l-153.6-358.4c-5.57-12.995 0.45-28.045 13.445-33.614 13-5.57 28.045 0.451 33.614 13.446l59.179 138.083h141.781l59.179-138.085c4.16-9.707 13.61-15.523 23.542-15.522 3.365 0 6.784 0.667 10.072 2.075 12.997 5.57 19.018 20.621 13.446 33.616zM795.851 768l48.949 114.211 48.949-114.211h-97.898zM947.2-51.2h-204.8c-9.125 0-17.562 4.858-22.142 12.75-4.579 7.894-4.613 17.629-0.085 25.552l182.914 320.098h-160.686c-14.139 0-25.6 11.461-25.6 25.6s11.461 25.6 25.6 25.6h204.8c9.125 0 17.562-4.858 22.142-12.75 4.579-7.894 4.613-17.629 0.085-25.552l-182.914-320.098h160.686c14.139 0 25.6-11.461 25.6-25.6s-11.461-25.6-25.6-25.6z" />
<glyph unicode="&#xe8a7;" glyph-name="pointer-right" d="M614.4 102.4c0 21.072-6.403 40.674-17.358 56.973 39.88 14.008 68.558 52.021 68.558 96.627 0 21.072-6.403 40.674-17.358 56.973 39.88 14.008 68.558 52.021 68.558 96.627 0 18.645-5.034 36.125-13.776 51.2h167.376c56.464 0 102.4 45.936 102.4 102.4s-45.936 102.4-102.4 102.4h-377.52l119.446 68.909c24.326 13.366 41.645 35.163 48.782 61.405 6.949 25.56 3.272 52.146-10.357 74.858-27.877 46.461-90.819 64.138-140.37 39.442-3.101-1.514-70.024-34.213-273.938-136.17-96.021-48.010-164.653-100.704-203.994-156.619-30.886-43.896-32.451-74.195-32.451-79.824v-256c0-43.41 12.566-83.571 37.352-119.371 23.957-34.603 58.984-64.469 104.11-88.768 89.251-48.059 217.381-73.461 370.538-73.461 56.464 0 102.4 45.936 102.4 102.4zM165.738 118.541c-52.251 28.134-114.538 79.262-114.538 163.059v255.49c0.173 2.016 2.565 23.546 26.894 56.067 24.246 32.41 75.373 82.155 181.246 135.091 207.579 103.789 272.947 135.685 273.584 135.995 0.077 0.037 0.154 0.075 0.23 0.114 25.742 12.87 59.49 3.744 73.694-19.928 6.387-10.645 8.11-23.102 4.853-35.080-3.47-12.766-12.059-23.438-24.182-30.051-0.179-0.098-0.357-0.198-0.534-0.301l-138.498-79.899c-29.842-16.349-42.405-34.723-37.328-54.622 5.088-19.955 25.019-30.075 59.24-30.075h400c28.232 0 51.2-22.968 51.2-51.2s-22.968-51.2-51.2-51.2h-332.8c-14.138 0-25.6-11.462-25.6-25.6s11.462-25.6 25.6-25.6h76.8c28.232 0 51.2-22.968 51.2-51.2s-22.968-51.2-51.2-51.2h-76.8c-14.138 0-25.6-11.461-25.6-25.6s11.462-25.6 25.6-25.6h25.6c28.232 0 51.2-22.968 51.2-51.2s-22.968-51.2-51.2-51.2h-76.8c-14.139 0-25.6-11.461-25.6-25.6s11.461-25.6 25.6-25.6h25.6c28.232 0 51.2-22.968 51.2-51.2s-22.968-51.2-51.2-51.2c-144.712 0-264.448 23.286-346.262 67.341z" />
<glyph unicode="&#xe900;" glyph-name="circle-solid" d="M512 944c-274 0-496-222-496-496s222-496 496-496 496 222 496 496-222 496-496 496z" />
<glyph unicode="&#xe901;" glyph-name="bicycle" horiz-adv-x="1280" d="M1028.23 575.966c-35.274 0.57-68.938-6.010-99.664-18.362l-158.58 255.492c-7.175 11.423-19.706 18.904-33.985 18.904 0 0-0.001 0-0.001 0h-136c-13.254 0-24-10.746-24-24v-32c0-13.254 10.746-24 24-24h113.748l64.552-104h-266.3v32c0 13.254-10.746 24-24 24h-192c-22.092 0-40-17.908-40-40s17.908-40 40-40h122.374l-51.3-73.288c-33.594 16.204-71.268 25.286-111.064 25.288-141.26 0.004-256.896-116.392-256.004-257.648 0.886-140.626 115.16-254.352 255.994-254.352 116.384 0 214.612 77.67 245.718 184h66.282c13.502 0.001 25.441 6.69 32.686 16.935l0.084 0.125 220.076 314.394 39.078-62.96c-56.272-47.038-92.042-117.784-91.924-196.89 0.208-137.76 115.816-254.316 253.57-255.594 143.202-1.328 259.574 114.934 258.42 258.096-1.112 138.304-113.472 251.624-251.76 253.86zM256 144c-97.046 0-176 78.954-176 176s78.954 176 176 176c0.053 0 0.116 0 0.179 0 23.070 0 45.097-4.461 65.267-12.568l-1.178 0.418-121.038-172.91c-18.546-26.502 0.484-62.94 32.77-62.94h184.588c-27.57-61.25-89.178-104-160.588-104zM308.826 328l77.282 110.402c26.818-29.444 43.796-67.994 45.704-110.402h-122.986zM547.174 328h-35.31c-2.138 69.61-32.052 132.226-79.048 177.126l44.010 62.874h238.348l-168-240zM1015.742 144.19c-91.028 4.184-164.432 78.438-167.63 169.504-1.848 52.604 19.528 100.354 54.656 133.776l95.686-154.16c6.99-11.262 21.788-14.724 33.048-7.734l27.188 16.876c11.262 6.99 14.724 21.786 7.734 33.048l-94.702 152.574c18.024 5.618 37.282 8.41 57.252 7.856 91.594-2.54 166.628-76.14 170.836-167.674 4.758-103.55-80.516-188.826-184.068-184.066z" />
<glyph unicode="&#xe902;" glyph-name="hat-santa" horiz-adv-x="1280" d="M1254.4 581c-1.8 24.6-12.2 48.4-30.6 66.8-18 18-41.4 28.8-66.6 30.6-18.6 16.2-43 25.6-69 25.6s-50.4-9.4-69-25.6c-8.6-0.6-16.6-3.6-24.6-6.4-155.2 156.8-234.8 224-384.2 224-137.2 0-260.8-82.4-313.6-209l-179.4-431h-21.4c-53 0-96-43-96-96v-64c0-53 43-96 96-96h832c53 0 96 43 96 96v64c0 53-43 96-96 96h-22.8l-122 284.4c-4.8 11 3.8 22.4 14.6 22.4 2 0 4-0.4 6-1.2l94.2-37.8c-0.4-4-2.2-7.8-2.2-12 0-26.2 9.4-50.2 25.6-69 1.8-24.6 12.2-48.4 30.6-66.8 18.2-18.2 41.8-29 67.2-31 18.6-16 42.6-25.4 68.6-25.4s50 9.4 68.6 25.4c25.4 2 49 12.8 67.2 31 18.4 18.4 28.8 42.2 30.6 66.8 16.2 18.6 25.6 42.8 25.6 69s-9.2 50.4-25.4 69.2zM960 160v-64c0-17.6-14.4-32-32-32h-832c-17.6 0-32 14.4-32 32v64c0 17.6 14.4 32 32 32h832c17.6 0 32-14.4 32-32zM797.8 626.8c-27 0-51.8-13.4-66.8-36-14.8-22.4-17.4-50.6-6.6-75.4l111.2-259.4h-649l169.4 406.4c43 103 142.8 169.6 254.4 169.6 122.6 0 187.8-53.2 331.8-198.6-10.8-15.2-18.4-32-20.2-50.2l-94.6 37.8c-9.4 4-19.4 5.8-29.6 5.8zM1185.2 471.8c8.8-16.2 7-36.6-6.8-50.2-8.4-8.4-19.2-12.4-30.2-12.4-7 0-13.8 2.4-20 5.8-5.2-17.6-21-30.8-40.2-30.8s-35 13.2-40.2 30.8c-6.4-3.4-13-5.8-20-5.8-11 0-21.8 4.2-30.2 12.4-13.6 13.6-15.4 34-6.8 50.2-17.6 5.2-30.8 21-30.8 40.2s13.2 35 30.8 40.2c-8.8 16.2-7 36.6 6.8 50.2 8.2 8.2 18.6 12 29.2 12 7.2 0 14.4-1.8 21-5.4 5.2 17.6 21 30.8 40.2 30.8s35-13.2 40.2-30.8c6.6 3.6 13.8 5.4 21 5.4 10.6 0 21.2-4 29.2-12 13.6-13.6 15.6-34 6.8-50.2 17.6-5.2 30.8-21 30.8-40.2s-13.2-35-30.8-40.2z" />
<glyph unicode="&#xe903;" glyph-name="bolt-regular" horiz-adv-x="768" d="M755.6 624.2c-16.4 28.6-46.2 45.8-79.2 45.8h-188.8l57.4 175c7.4 27.6 1.6 56.6-15.8 79.4-17.6 22.6-44.2 35.6-72.8 35.6h-261c-45.6 0-84.6-34.2-89.6-74.2l-104.8-424.4c-3.8-27.6 4.4-55.4 22.6-76.4s44.6-33 72.4-33h196.2l-69.8-303.4c-6.4-27.4-0.2-55.8 17.2-77.8 17.4-22.2 43.6-34.8 71.8-34.8 32.6 0 63 17.6 77.6 43.2l366.4 553.4c16.8 28.6 16.8 63 0.2 91.6zM320.2 45.2l92.6 402.8h-317.8l100.4 416 255.2 1.8-95.6-291.8h313l-347.8-528.8z" />
<glyph unicode="&#xe904;" glyph-name="camera-retro" d="M308 800h-232c-6.6 0-12 5.4-12 12v72c0 6.6 5.4 12 12 12h232c6.6 0 12-5.4 12-12v-72c0-6.6-5.4-12-12-12zM1024 800v-704c0-53-43-96-96-96h-832c-53 0-96 43-96 96v576c0 53 43 96 96 96h272l67.2 89.6c18.2 24.2 46.6 38.4 76.8 38.4h416c53 0 96-43 96-96zM928 672h-832v-576h832v576zM928 800h-416l-24-32h440v32zM752 384c0 132.4-107.6 240-240 240s-240-107.6-240-240 107.6-240 240-240 240 107.6 240 240zM656 384c0-79.4-64.6-144-144-144s-144 64.6-144 144 64.6 144 144 144 144-64.6 144-144zM464 384c0 26.4 21.6 48 48 48 17.6 0 32 14.4 32 32s-14.4 32-32 32c-61.8 0-112-50.2-112-112 0-17.6 14.4-32 32-32s32 14.4 32 32z" />
<glyph unicode="&#xe905;" glyph-name="circle-light" d="M512 944c-274 0-496-222-496-496s222-496 496-496 496 222 496 496-222 496-496 496zM944 448c0-237.4-192.2-432-432-432-237.4 0-432 192.2-432 432 0 237.4 192.2 432 432 432 237.4 0 432-192.2 432-432z" />
<glyph unicode="&#xe906;" glyph-name="caret-square-down" horiz-adv-x="896" d="M250.2 544h395.6c21.4 0 32.2-26 17-41l-197.8-196.6c-9.4-9.4-24.4-9.4-33.8 0l-197.8 196.6c-15.4 15-4.6 41 16.8 41zM896 800v-704c0-53-43-96-96-96h-704c-53 0-96 43-96 96v704c0 53 43 96 96 96h704c53 0 96-43 96-96zM800 108v680c0 6.6-5.4 12-12 12h-680c-6.6 0-12-5.4-12-12v-680c0-6.6 5.4-12 12-12h680c6.6 0 12 5.4 12 12z" />
<glyph unicode="&#xe907;" glyph-name="check-circle-solid" d="M1008 448c0-273.934-222.066-496-496-496s-496 222.066-496 496 222.066 496 496 496 496-222.066 496-496zM454.628 185.372l368 368c12.496 12.496 12.496 32.758 0 45.254l-45.254 45.254c-12.496 12.498-32.758 12.498-45.256 0l-300.118-300.116-140.118 140.118c-12.496 12.496-32.758 12.496-45.256 0l-45.254-45.254c-12.496-12.496-12.496-32.758 0-45.254l208-208c12.498-12.498 32.758-12.498 45.256-0.002z" />
<glyph unicode="&#xe908;" glyph-name="user-circle-solid" horiz-adv-x="992" d="M496 944c-274 0-496-222-496-496s222-496 496-496 496 222 496 496-222 496-496 496zM496 752c97.2 0 176-78.8 176-176s-78.8-176-176-176-176 78.8-176 176 78.8 176 176 176zM496 64c-117.4 0-222.6 53.2-293 136.4 37.6 70.8 111.2 119.6 197 119.6 4.8 0 9.6-0.8 14.2-2.2 26-8.4 53.2-13.8 81.8-13.8s56 5.4 81.8 13.8c4.6 1.4 9.4 2.2 14.2 2.2 85.8 0 159.4-48.8 197-119.6-70.4-83.2-175.6-136.4-293-136.4z" />
<glyph unicode="&#xe909;" glyph-name="candy-cane" d="M995 776c-55.8 117.8-171.4 184-290.2 184-55.8 0-112.4-14.6-163.6-45.2l-55-32.8c-30.4-18.2-40.2-57.4-22-87.8l65.6-109.8c18.8-31.4 58.6-39.6 87.8-22l55 32.8c71.8 43 139.2-66 65.6-109.8l-707-420.6c-30.4-18.2-40.2-57.4-22-87.8l65.6-109.8c12-20 33.2-31.2 55-31.2 11.2 0 22.4 3 32.8 9l694.6 413c143.4 85.8 209.2 267 137.8 418zM584.6 717.2l-65.6 109.8c64.6 38.6 106.2 68.8 185 69v-128c-47.2-0.6-74.6-24.2-119.4-50.8zM766.6 752h1.4v135.8c73.4-18.4 135.6-68 169.2-139 6.8-14.4 12-29.4 15.8-44.6h-137v-0.2c-0.4 0.6-0.6 1.2-0.8 1.8-11.8 19.8-28.8 35.4-48.6 46.2zM513.6 377.2l164.6 98 128.6-72.4-164.6-98-128.6 72.4zM578.8 267l-175-104-128.6 72.4 175 104 128.6-72.4zM129.6 0l-65.8 109.8 147.8 87.8 128.6-72.4-210.6-125.2zM865.6 443l-124 69.8 29.2 17.4c40 23.8 61.8 66.4 61.8 109.8h126c-1.8-73-34.4-145.6-93-197z" />
<glyph unicode="&#xe90a;" glyph-name="bookmarkempty" d="M833.334 960h-642.668c-16.568 0-30-13.432-30-30v-964c0-12.134 7.31-23.072 18.52-27.716 3.712-1.538 7.61-2.284 11.474-2.284 7.808 0 15.48 3.046 21.22 8.788l300.126 300.122 300.114-300.122c8.58-8.58 21.484-11.146 32.694-6.504 11.21 4.644 18.52 15.582 18.52 27.716v964c0 16.568-13.432 30-30 30zM512.004 317.336c-7.956 0-15.586-3.16-21.212-8.788l-270.126-270.122v861.574h582.666v-861.57l-270.114 270.118c-5.626 5.628-13.256 8.788-21.214 8.788z" />
<glyph unicode="&#xe90b;" glyph-name="cartsmooth" d="M824.64 272.298h-357.413c-51.597 0-106.834 37.604-125.736 85.624l-144.438 366.634c-7.626 19.363-34.499 37.657-55.31 37.657h-103.886c-20.905-0.010-37.856 16.94-37.856 37.846s16.951 37.856 37.856 37.856h103.897c51.608 0 106.834-37.604 125.736-85.624l144.438-366.634c7.626-19.363 34.499-37.657 55.3-37.657h357.413c20.297 0 45.891 18.094 52.656 37.216l69.628 196.759c1.951 5.507 1.458 8.863 0.923 9.629-0.545 0.766-3.545 2.339-9.388 2.339h-492.936c-20.905 0-37.856 16.951-37.856 37.856s16.951 37.856 37.856 37.856h492.936c29.821 0 55.772-12.524 71.212-34.353 15.43-21.828 18.577-50.464 8.622-78.576l-69.628-196.759c-17.391-49.153-71.873-87.67-124.026-87.67zM454.052 142.21c0-46.461-37.664-84.124-84.124-84.124s-84.124 37.664-84.124 84.124c0 46.461 37.664 84.124 84.124 84.124s84.124-37.664 84.124-84.124zM993.434 142.21c0-46.461-37.664-84.124-84.124-84.124s-84.124 37.664-84.124 84.124c0 46.461 37.664 84.124 84.124 84.124s84.124-37.664 84.124-84.124zM823.297 503.169h-334.368c-10.458 0-18.923 8.475-18.923 18.923 0 10.458 8.475 18.923 18.923 18.923h334.368c10.458 0 18.923-8.475 18.923-18.923s-8.465-18.923-18.923-18.923zM797.724 408.534h-274.684c-10.447 0-18.923 8.475-18.923 18.923 0 10.458 8.475 18.923 18.923 18.923h274.695c10.458 0 18.923-8.475 18.923-18.923-0.010-10.447-8.475-18.923-18.933-18.923z" />
<glyph unicode="&#xe90c;" glyph-name="fire-alt" horiz-adv-x="896" d="M647.12 857.6c-41.6-38.6-79.16-79.18-112.44-119.94-54.52 75.1-122.12 151.28-198.68 222.34-196.52-182.34-336-419.92-336-563.2 0-254.5 200.58-460.8 448-460.8s448 206.3 448 460.8c0 106.54-103.96 326.28-248.88 460.8zM608.18 176.3c-43.32-30.32-96.74-48.3-154.46-48.3-144.3 0-261.72 95.48-261.72 250.5 0 77.22 48.62 145.26 145.58 261.5 13.86-15.96 197.66-250.68 197.66-250.68l117.26 133.76c8.28-13.7 15.82-27.1 22.54-39.94 54.7-104.38 31.62-237.94-66.86-306.84z" />
<glyph unicode="&#xe90d;" glyph-name="gem" horiz-adv-x="1152" d="M927.4 960h-702.8c-8.4 0-16.2-4.4-20.6-11.6l-200.6-325.6c-5.4-8.8-4.4-20.2 2.4-28l552-650.4c9.6-11.2 26.8-11.2 36.4 0l552 650.4c6.8 7.8 7.6 19.2 2.4 28l-200.6 325.6c-4.4 7.2-12.2 11.6-20.6 11.6zM900.2 888l148.6-248h-166l-113.6 248h131zM690 888l113.6-248h-455.4l113.8 248h228zM251.8 888h131l-113.6-248h-166l148.6 248zM122.4 576h146l163.6-384-309.6 384zM346.4 576h459l-229.4-527.6-229.6 527.6zM720 192l163.6 384h146l-309.6-384z" />
<glyph unicode="&#xe90e;" glyph-name="star" horiz-adv-x="1152" d="M518.6 924.4l-130.6-264.8-292.2-42.6c-52.4-7.6-73.4-72.2-35.4-109.2l211.4-206-50-291c-9-52.6 46.4-92 92.8-67.4l261.4 137.4 261.4-137.4c46.4-24.4 101.8 14.8 92.8 67.4l-50 291 211.4 206c38 37 17 101.6-35.4 109.2l-292.2 42.6-130.6 264.8c-23.4 47.2-91.2 47.8-114.8 0z" />
<glyph unicode="&#xe90f;" glyph-name="pencil" d="M864 960c88.364 0 160-71.634 160-160 0-36.020-11.91-69.258-32-96l-64-64-224 224 64 64c26.742 20.090 59.978 32 96 32zM64 224l-64-288 288 64 592 592-224 224-592-592zM715.578 596.422l-448-448-55.156 55.156 448 448 55.156-55.156z" />
<glyph unicode="&#xe910;" glyph-name="edit-regular" horiz-adv-x="1152" d="M804.6 270.2l64 64c10 10 27.4 3 27.4-11.4v-290.8c0-53-43-96-96-96h-704c-53 0-96 43-96 96v704c0 53 43 96 96 96h547c14.2 0 21.4-17.2 11.4-27.4l-64-64c-3-3-7-4.6-11.4-4.6h-483v-704h704v227c0 4.2 1.6 8.2 4.6 11.2zM1117.8 673.8l-525.2-525.2-180.8-20c-52.4-5.8-97 38.4-91.2 91.2l20 180.8 525.2 525.2c45.8 45.8 119.8 45.8 165.4 0l86.4-86.4c45.8-45.8 45.8-120 0.2-165.6zM920.2 612l-116.2 116.2-371.6-371.8-14.6-130.6 130.6 14.6 371.8 371.6zM1049.8 771.4l-86.4 86.4c-8.2 8.2-21.6 8.2-29.6 0l-61.8-61.8 116.2-116.2 61.8 61.8c8 8.4 8 21.6-0.2 29.8z" />
<glyph unicode="&#xe911;" glyph-name="clock" d="M981.333 426.667c0 129.579-52.565 246.997-137.472 331.861s-202.283 137.472-331.861 137.472-246.997-52.565-331.861-137.472-137.472-202.283-137.472-331.861 52.565-246.997 137.472-331.861 202.283-137.472 331.861-137.472 246.997 52.565 331.861 137.472 137.472 202.283 137.472 331.861zM896 426.667c0-106.069-42.923-201.984-112.469-271.531s-165.461-112.469-271.531-112.469-201.984 42.923-271.531 112.469-112.469 165.461-112.469 271.531 42.923 201.984 112.469 271.531 165.461 112.469 271.531 112.469 201.984-42.923 271.531-112.469 112.469-165.461 112.469-271.531zM469.333 682.667v-256c0-16.597 9.472-31.019 23.595-38.144l170.667-85.333c21.077-10.539 46.72-2.005 57.259 19.072s2.005 46.72-19.072 57.259l-147.115 73.515v229.632c0 23.552-19.115 42.667-42.667 42.667s-42.667-19.115-42.667-42.667z" />
<glyph unicode="&#xe912;" glyph-name="exclamation-circle" d="M512 944c-273.914 0-496-222.166-496-496 0-273.994 222.086-496 496-496s496 222.006 496 496c0 273.834-222.086 496-496 496zM512 48c-221.064 0-400 178.862-400 400 0 220.99 178.944 400 400 400 220.982 0 400-178.942 400-400 0-221.060-178.862-400-400-400zM596 256c0-46.318-37.682-84-84-84s-84 37.682-84 84 37.682 84 84 84 84-37.682 84-84zM433.26 678.802l13.6-272c0.638-12.774 11.182-22.802 23.97-22.802h82.34c12.788 0 23.332 10.028 23.97 22.802l13.6 272c0.686 13.708-10.244 25.198-23.97 25.198h-109.54c-13.726 0-24.656-11.49-23.97-25.198z" />
<glyph unicode="&#xe913;" glyph-name="language" horiz-adv-x="1280" d="M320.6 552.4h-1s-8.6-41.8-15.6-66l-22-74.6h75.8l-21.4 74.6c-7.2 24.2-15.8 66-15.8 66zM1232 768h-1184c-26.6 0-48-21.4-48-48v-544c0-26.6 21.4-48 48-48h1184c26.6 0 48 21.4 48 48v544c0 26.6-21.4 48-48 48zM466.4 256h-45.2c-10.824 0.008-19.971 7.18-22.956 17.030l-0.044 0.17-18.6 63.4h-119.8l-18.2-63.2c-3-10.2-12.4-17.4-23-17.4h-45c-16.4 0-28 16.2-22.8 31.8l114.2 336c3.4 9.8 12.4 16.2 22.8 16.2h64.4c10.2 0 19.4-6.6 22.8-16.2l114.2-336c5.2-15.6-6.4-31.8-22.8-31.8zM1200 208h-560v480h560zM744 504h221.6c-12.6-25.6-30.2-51.8-51.8-77-13.2 15.6-25.6 31.6-36.6 48-7 10.6-21.2 13.8-32.2 7.2l-27.4-16.4c-11.8-7-15.2-22.6-7.6-34 13-19.4 28.8-40.2 47-61.2-18-15.4-37.2-29.6-57.4-42.4-10.8-6.8-14.2-21-7.8-32l15.8-27.8c6.8-11.8 22-15.8 33.6-8.4 25 15.8 49.2 34 72 53.6 21.4-19.2 44.6-37.2 69.2-53.2 11.6-7.4 27.2-3.8 34 8.2l16 27.8c6.2 11 3 25-7.6 32-18.4 12-36.8 26.2-54.4 41.8 3 3.4 5.8 6.6 8.6 10 34.2 41.2 59.2 83.4 73.6 124h27.4c13.2 0 24 10.8 24 24v32c0 13.2-10.8 24-24 24h-128v32c0 13.2-10.8 24-24 24h-32c-13.2 0-24-10.8-24-24v-32h-128c-13.2 0-24-10.8-24-24v-32c0-13.4 10.8-24.2 24-24.2z" />
<glyph unicode="&#xe914;" glyph-name="car-battery" d="M960 768h-96v32c0 17.68-14.32 32-32 32h-192c-17.68 0-32-14.32-32-32v-31.96l-192-0.040v32c0 17.68-14.32 32-32 32h-192c-17.68 0-32-14.32-32-32v-32h-96c-35.34 0-64-28.66-64-64v-576c0-35.34 28.66-64 64-64h896c35.34 0 64 28.66 64 64v576c0 35.34-28.66 64-64 64zM928 160h-832v512h832v-512zM400 496h-224c-8.84 0-16-7.16-16-16v-64c0-8.84 7.16-16 16-16h224c8.84 0 16 7.16 16 16v64c0 8.84-7.16 16-16 16zM848 496h-64v64c0 8.84-7.16 16-16 16h-64c-8.84 0-16-7.16-16-16v-64h-64c-8.84 0-16-7.16-16-16v-64c0-8.84 7.16-16 16-16h64v-64c0-8.84 7.16-16 16-16h64c8.84 0 16 7.16 16 16v64h64c8.84 0 16 7.16 16 16v64c0 8.84-7.16 16-16 16z" />
<glyph unicode="&#xe915;" glyph-name="leaf" horiz-adv-x="1152" d="M1092.4 940.6c-5.8 13-17.2 19.4-28.6 19.4-10.6 0-21.4-5.6-28-17-62-107.8-173-175-299.8-175h-160c-212 0-384-172-384-384 0-35.6 5.2-69.8 14.2-102.4-148.2-129-202.6-279.2-203.6-282-8.6-25 4.6-52.4 29.6-61 28-9.6 53.4 7.6 61 29.6 0.8 2.2 42 115 152.6 220.2 75.2-126.4 217.2-202.4 371-186.2 314.2 22.8 535.2 304.4 535.2 649.2 0 100.4-21.6 204.4-59.6 289.2zM606.8 97.6c-172.2-18.2-261.2 109-284.4 153 94.8 65.8 224 117.4 397.8 117.4 26.4 0 48 21.6 48 48s-21.6 48-48 48c-182.6 0-322.2-51-428-118.8-1.8 12.8-4 25.6-4 38.8 0 158.8 129.2 288 288 288h160c115.8 0 223.2 44 304 121.8 10.4-46.4 16-95 16-142.4-0.2-302-187.8-534.8-449.4-553.8z" />
<glyph unicode="&#xe916;" glyph-name="lightbulb" horiz-adv-x="704" d="M352 800c-105.88 0-192-86.12-192-192 0-17.68 14.32-32 32-32s32 14.32 32 32c0 70.6 57.44 128 128 128 17.68 0 32 14.32 32 32s-14.32 32-32 32zM192.12 41.66c0-6.3 1.86-12.44 5.36-17.68l49.020-73.68c5.94-8.92 15.94-14.28 26.64-14.28h157.7c10.72 0 20.72 5.36 26.64 14.28l49.020 73.68c3.48 5.24 5.34 11.4 5.36 17.68l0.1 86.36h-319.92l0.080-86.36zM352 960c-204.56 0-352-165.94-352-352 0-88.74 32.9-169.7 87.12-231.56 33.28-37.98 85.48-117.6 104.84-184.32v-0.12h96v0.24c-0.020 9.54-1.44 19.020-4.3 28.14-11.18 35.62-45.64 129.54-124.34 219.34-41.080 46.86-63.040 106.3-63.22 168.28-0.4 147.28 119.34 256 255.9 256 141.16 0 256-114.84 256-256 0-61.94-22.48-121.7-63.3-168.28-78.22-89.22-112.84-182.94-124.2-218.92-2.805-8.545-4.428-18.381-4.44-28.594v-0.206h96v0.1c19.36 66.74 71.56 146.36 104.84 184.32 54.2 61.88 87.1 142.84 87.1 231.58 0 194.4-157.6 352-352 352z" />
<glyph unicode="&#xe917;" glyph-name="microchip" d="M737 960h-449c-53 0-96-43-96-96v-832c0-53 43-96 96-96h449c53 0 96 43 96 96v832c0 53-43 96-96 96zM737 46c0-6.6-5.4-14-12-14h-425c-6.6 0-12 7.4-12 14v806c0 6.6 5.4 12 12 12h425c6.6 0 12-5.4 12-12v-806zM1024 748v-24c0-6.6-5.4-12-12-12h-36v-12c0-6.6-5.4-12-12-12h-84v96h84c6.6 0 12-5.4 12-12v-12h36c6.6 0 12-5.4 12-12zM1024 556v-24c0-6.6-5.4-12-12-12h-36v-12c0-6.6-5.4-12-12-12h-84v96h84c6.6 0 12-5.4 12-12v-12h36c6.6 0 12-5.4 12-12zM1024 364v-24c0-6.6-5.4-12-12-12h-36v-12c0-6.6-5.4-12-12-12h-84v96h84c6.6 0 12-5.4 12-12v-12h36c6.6 0 12-5.4 12-12zM1024 172v-24c0-6.6-5.4-12-12-12h-36v-12c0-6.6-5.4-12-12-12h-84v96h84c6.6 0 12-5.4 12-12v-12h36c6.6 0 12-5.4 12-12zM60 208h84v-96h-84c-6.6 0-12 5.4-12 12v12h-36c-6.6 0-12 5.4-12 12v24c0 6.6 5.4 12 12 12h36v12c0 6.6 5.4 12 12 12zM60 400h84v-96h-84c-6.6 0-12 5.4-12 12v12h-36c-6.6 0-12 5.4-12 12v24c0 6.6 5.4 12 12 12h36v12c0 6.6 5.4 12 12 12zM60 592h84v-96h-84c-6.6 0-12 5.4-12 12v12h-36c-6.6 0-12 5.4-12 12v24c0 6.6 5.4 12 12 12h36v12c0 6.6 5.4 12 12 12zM60 784h84v-96h-84c-6.6 0-12 5.4-12 12v12h-36c-6.6 0-12 5.4-12 12v24c0 6.6 5.4 12 12 12h36v12c0 6.6 5.4 12 12 12z" />
<glyph unicode="&#xe918;" glyph-name="microphone-alt-regular" horiz-adv-x="704" d="M672 576h-32c-17.68 0-32-14.32-32-32v-96c0-149.6-128.98-269.64-281.58-254.76-133 12.98-230.42 132.54-230.42 266.16v84.6c0 17.68-14.32 32-32 32h-32c-17.68 0-32-14.32-32-32v-80.32c0-179.28 127.94-339.1 304-363.38v-68.3h-112c-17.68 0-32-14.32-32-32v-32c0-17.68 14.32-32 32-32h320c17.68 0 32 14.32 32 32v32c0 17.68-14.32 32-32 32h-112v67.54c171.42 23.52 304 170.66 304 348.46v96c0 17.68-14.32 32-32 32zM352 256c106.040 0 192 85.96 192 192v320c0 106.040-85.96 192-192 192s-192-85.96-192-192v-320c0-106.040 85.96-192 192-192zM256 768c0 52.94 43.060 96 96 96s96-43.060 96-96h-80c-8.84 0-16-7.16-16-16v-32c0-8.84 7.16-16 16-16h80v-64h-80c-8.84 0-16-7.16-16-16v-32c0-8.84 7.16-16 16-16h80v-64h-80c-8.84 0-16-7.16-16-16v-32c0-8.84 7.16-16 16-16h80c0-52.94-43.060-96-96-96s-96 43.060-96 96v320z" />
<glyph unicode="&#xe919;" glyph-name="image-regular" d="M928 832h-832c-53.020 0-96-42.98-96-96v-576c0-53.020 42.98-96 96-96h832c53.020 0 96 42.98 96 96v576c0 53.020-42.98 96-96 96zM916 160h-808c-6.627 0-12 5.373-12 12v0 552c0 6.627 5.373 12 12 12v0h808c6.627 0 12-5.373 12-12v0-552c0-6.627-5.373-12-12-12v0zM256 656c-44.182 0-80-35.818-80-80s35.818-80 80-80 80 35.818 80 80-35.818 80-80 80zM192 256h640v160l-175.030 175.030c-9.372 9.372-24.568 9.372-33.942 0l-239.028-239.030-79.030 79.030c-9.372 9.372-24.568 9.372-33.942 0l-79.028-79.030v-96z" />
<glyph unicode="&#xe91a;" glyph-name="moon" d="M938.496 389.035c0.939 9.941-1.621 20.309-8.021 29.056-13.867 19.029-40.576 23.211-59.605 9.344-40.533-29.568-87.893-46.336-136.021-49.579-58.368-3.925-117.973 12.075-168.533 49.408-56.875 42.027-91.264 103.040-100.992 167.893s5.291 133.291 47.317 190.123c6.059 8.149 9.216 18.56 8.149 29.483-2.261 23.467-23.125 40.619-46.592 38.315-96.341-9.387-184.064-50.347-251.52-113.109-74.069-68.907-123.819-164.139-133.845-272.469-10.837-117.291 26.923-227.968 96.683-311.936s171.605-141.355 288.939-152.192 227.968 26.923 311.936 96.683 141.355 171.605 152.192 288.939zM834.859 312.576c-20.907-58.155-56.96-108.501-103.083-146.816-67.243-55.851-155.648-86.016-249.515-77.355s-175.275 54.528-231.125 121.771-86.016 155.648-77.355 249.515c7.979 86.699 47.659 162.731 106.965 217.856 33.365 31.061 72.96 55.467 116.523 71.339-19.456-53.931-24.619-111.189-16.384-166.357 12.928-86.315 58.88-167.851 134.656-223.872 67.328-49.792 147.115-71.168 224.939-65.92 32.085 2.133 63.829 8.832 94.293 19.84z" />
<glyph unicode="&#xe91b;" glyph-name="pills" horiz-adv-x="1152" d="M224 896c-123.8 0-224-100.2-224-224v-448c0-123.8 100.2-224 224-224s224 100.2 224 224v448c0 123.8-100.2 224-224 224zM352 448h-256v224c0 169.4 256 169.4 256 0v-224zM1058.2 546.2c-124.8 124.8-327.6 125-452.6 0s-125-327.6 0-452.6c124.8-124.8 327.6-125 452.6 0s125 327.8 0 452.6zM643.6 440.6l309-309c-201.2-129.2-438.6 107.4-309 309zM1020.4 199.4l-309 309c201.2 129.4 438.6-107.4 309-309z" />
<glyph unicode="&#xe91c;" glyph-name="power-off" d="M777 867.4c138.8-88 231-243 231-419.4 0-273.6-221.6-495.4-495-496-273-0.6-496.6 222-497 495.2-0.2 176.8 92 332.2 231 420.2 11.6 7.4 27 3.6 33.8-8.4l23.6-41.8c6.2-11 2.8-25-7.8-31.8-111-71.2-184.6-195.6-184.6-337.4 0-221 179-400 400-400s400 179 400 400c0 141.8-73.6 266.2-184.6 337.2-10.6 6.8-14 20.8-7.8 31.8l23.6 41.8c6.6 12.2 22.2 15.8 33.8 8.6zM560 408v528c0 13.2-10.8 24-24 24h-48c-13.2 0-24-10.8-24-24v-528c0-13.2 10.8-24 24-24h48c13.2 0 24 10.8 24 24z" />
<glyph unicode="&#xe91d;" glyph-name="rocket-launch" d="M71.37 255.867c-51.715-51.707-77.269-181.055-70.219-318.688 138.23-7.117 267.222 18.703 318.73 70.211 80.578 80.559 85.754 187.973 12.621 261.098-73.129 73.117-180.562 67.941-261.132-12.621zM234.636 87.805c-17.172-17.168-60.168-25.773-106.238-23.398-2.348 45.871 6.168 88.984 23.406 106.219 26.855 26.852 62.66 28.578 87.035 4.207 24.375-24.375 22.652-60.176-4.203-87.027zM1010.326 921.406c-2.352 10.926-13.977 22.531-24.902 24.867-64.191 13.727-114.496 13.727-164.586 13.727-206.437 0-330.238-110.406-422.656-256h-208.406c-32.594 0-71.199-23.848-85.777-52.996l-98.844-197.598c-2.917-6.275-4.741-13.593-5.028-21.303l-0.003-0.103c0.009-26.509 21.499-47.995 48.007-48h207.907c0.004 0 0.009 0 0.014 0 106.041 0 192.005-85.96 192.013-191.999v-208.001c0.009-26.509 21.499-47.995 48.007-48h0.001c7.814 0.298 15.13 2.121 21.76 5.178l-0.354-0.146 197.496 98.813c29.121 14.57 52.949 53.129 52.949 85.687v208.875c145.176 92.625 256.039 216.813 256.039 422.188 0.187 50.301 0.187 100.602-13.637 164.812zM716.276 415.336c-50.664-32.324-15.012-13.48-198.633-104.418-29.484 63.448-79.351 113.287-141.040 141.991l-1.78 0.744c90.746 183.367 71.793 147.5 104.426 198.906 94.078 148.207 196.234 211.441 341.589 211.441 35.297 0 67.082 0 102.746-4.496 4.609-36.527 4.488-68.937 4.363-102.91 0-144.539-63.305-246.598-211.672-341.258zM736.112 752c-44.178-0.007-79.988-35.821-79.988-80 0-44.183 35.817-80 80-80s80 35.817 80 80v0c-0.022 44.178-35.833 79.984-80.010 80h-0.001z" />
<glyph unicode="&#xe91e;" glyph-name="shopping-bagfeather" d="M810.667 725.334h-597.333l64 85.333h469.333zM929.877 708.608l-127.744 170.325c-8.363 11.136-21.077 17.024-34.133 17.067h-512c-13.909 0-26.283-6.656-34.133-17.067l-127.744-170.325c-1.835-2.389-3.456-4.992-4.736-7.765-2.773-5.845-4.096-12.075-4.053-18.176v-597.333c0-35.328 14.379-67.413 37.504-90.496s55.168-37.504 90.496-37.504h597.333c35.328 0 67.413 14.379 90.496 37.504s37.504 55.168 37.504 90.496v597.333c0 9.344-3.029 18.005-8.064 24.96-0.171 0.213-0.299 0.427-0.469 0.64zM170.667 640h682.667v-554.667c0-11.776-4.736-22.4-12.501-30.165s-18.389-12.501-30.165-12.501h-597.333c-11.776 0-22.4 4.736-30.165 12.501s-12.501 18.389-12.501 30.165zM640 512c0-35.371-14.293-67.285-37.504-90.496s-55.125-37.504-90.496-37.504-67.285 14.293-90.496 37.504-37.504 55.125-37.504 90.496c0 23.552-19.115 42.667-42.667 42.667s-42.667-19.115-42.667-42.667c0-58.88 23.936-112.299 62.464-150.869s91.989-62.464 150.869-62.464 112.299 23.936 150.869 62.464 62.464 91.989 62.464 150.869c0 23.552-19.115 42.667-42.667 42.667s-42.667-19.115-42.667-42.667z" />
<glyph unicode="&#xe91f;" glyph-name="sitemap" horiz-adv-x="1280" d="M256 256h-192c-35.34 0-64-28.66-64-64v-192c0-35.34 28.66-64 64-64h192c35.34 0 64 28.66 64 64v192c0 35.34-28.66 64-64 64zM208 416h384v-96h96v96h384v-96h96v115.18c0 42.34-34.46 76.82-76.82 76.82h-403.18v128h80c35.34 0 64 28.66 64 64v192c0 35.34-28.66 64-64 64h-256c-35.34 0-64-28.66-64-64v-192c0-35.34 28.66-64 64-64h80v-128h-403.18c-42.36 0-76.82-34.46-76.82-76.82v-115.18h96v96zM736 256h-192c-35.34 0-64-28.66-64-64v-192c0-35.34 28.66-64 64-64h192c35.34 0 64 28.66 64 64v192c0 35.34-28.66 64-64 64zM1216 256h-192c-35.34 0-64-28.66-64-64v-192c0-35.34 28.66-64 64-64h192c35.34 0 64 28.66 64 64v192c0 35.34-28.66 64-64 64z" />
<glyph unicode="&#xe920;" glyph-name="sun" d="M768 426.667c0 70.699-28.715 134.741-74.965 181.035s-110.336 74.965-181.035 74.965-134.741-28.715-181.035-74.965-74.965-110.336-74.965-181.035 28.715-134.741 74.965-181.035 110.336-74.965 181.035-74.965 134.741 28.715 181.035 74.965 74.965 110.336 74.965 181.035zM682.667 426.667c0-47.147-19.072-89.728-50.005-120.661s-73.515-50.005-120.661-50.005-89.728 19.072-120.661 50.005-50.005 73.515-50.005 120.661 19.072 89.728 50.005 120.661 73.515 50.005 120.661 50.005 89.728-19.072 120.661-50.005 50.005-73.515 50.005-120.661zM469.333 896v-85.333c0-23.552 19.115-42.667 42.667-42.667s42.667 19.115 42.667 42.667v85.333c0 23.552-19.115 42.667-42.667 42.667s-42.667-19.115-42.667-42.667zM469.333 42.667v-85.333c0-23.552 19.115-42.667 42.667-42.667s42.667 19.115 42.667 42.667v85.333c0 23.552-19.115 42.667-42.667 42.667s-42.667-19.115-42.667-42.667zM149.888 728.448l60.587-60.587c16.683-16.683 43.691-16.683 60.331 0s16.683 43.691 0 60.331l-60.587 60.587c-16.683 16.683-43.691 16.683-60.331 0s-16.683-43.691 0-60.331zM753.195 125.142l60.587-60.587c16.683-16.683 43.691-16.683 60.331 0s16.683 43.691 0 60.331l-60.587 60.587c-16.683 16.683-43.691 16.683-60.331 0s-16.683-43.691 0-60.331zM42.667 384h85.333c23.552 0 42.667 19.115 42.667 42.667s-19.115 42.667-42.667 42.667h-85.333c-23.552 0-42.667-19.115-42.667-42.667s19.115-42.667 42.667-42.667zM896 384h85.333c23.552 0 42.667 19.115 42.667 42.667s-19.115 42.667-42.667 42.667h-85.333c-23.552 0-42.667-19.115-42.667-42.667s19.115-42.667 42.667-42.667zM210.219 64.555l60.587 60.587c16.683 16.683 16.683 43.691 0 60.331s-43.691 16.683-60.331 0l-60.587-60.587c-16.683-16.683-16.683-43.691 0-60.331s43.691-16.683 60.331 0zM813.525 667.862l60.587 60.587c16.683 16.683 16.683 43.691 0 60.331s-43.691 16.683-60.331 0l-60.587-60.587c-16.683-16.683-16.683-43.691 0-60.331s43.691-16.683 60.331 0z" />
<glyph unicode="&#xe921;" glyph-name="tshirt" horiz-adv-x="1280" d="M1276 718c-6.6 19.6-20.4 35.6-39 44.8l-396.6 197.2c-19-26.4-56.8-100.6-200.4-100.6-144.8 0-182.2 75.4-200.4 100.6l-396.4-197.2c-18.6-9.2-32.6-25.2-39.2-44.8-6.6-19.8-5.2-40.8 4.2-59.4l106-212.4c19.2-38.4 66-54 103.2-35.4l48 22.6c10.6 5 22.8-2.8 22.8-14.4v-370.6c0-62 50.2-112.4 112-112.4h480c61.8 0 112 50.4 112 112.4v370.4c0 11.8 12.2 19.4 22.8 14.4l47-22.2c38.2-19.4 85-3.6 104.2 34.8l106 212.4c8.8 19 10.4 40 3.8 59.8zM1088 505.2l-146.4 69.2c-21.2 10-45.6-5.4-45.6-29v-497.2c0-8.8-7.2-16-16-16h-480c-8.8 0-16 7.2-16 16v497.2c0 23.4-24.4 39-45.6 29l-146.4-69.2-89.6 179.8 311 154.6c52.8-48 135.6-76.6 226.6-76.6s173.8 28.6 226.4 76.4l311-154.6-89.4-179.6z" />
<glyph unicode="&#xe922;" glyph-name="scissors" d="M314.795 232.491c0.469-0.512 0.981-1.067 1.493-1.536s1.024-0.981 1.536-1.493c14.635-15.317 23.509-35.968 23.509-58.795 0-23.595-9.515-44.843-25.003-60.331s-36.736-25.003-60.331-25.003-44.843 9.515-60.331 25.003-25.003 36.736-25.003 60.331 9.515 44.843 25.003 60.331 36.736 25.003 60.331 25.003c22.827 0 43.477-8.875 58.795-23.509zM587.264 290.646l235.947-235.52c16.683-16.64 43.691-16.64 60.331 0.043s16.64 43.691-0.043 60.331l-235.947 235.52c-16.683 16.64-43.691 16.64-60.331-0.043s-16.64-43.691 0.043-60.331zM317.824 623.872c-0.512-0.469-1.024-0.981-1.536-1.493s-1.024-1.024-1.493-1.536c-15.317-14.635-35.968-23.509-58.795-23.509-23.595 0-44.843 9.515-60.331 25.003s-25.003 36.736-25.003 60.331 9.515 44.843 25.003 60.331 36.736 25.003 60.331 25.003 44.843-9.515 60.331-25.003 25.003-36.736 25.003-60.331c0-22.827-8.875-43.477-23.509-58.795zM342.699 535.638l108.971-108.971-108.971-108.971c-25.429 15.019-55.083 23.637-86.699 23.637-47.104 0-89.856-19.157-120.661-50.005s-50.005-73.557-50.005-120.661 19.157-89.856 50.005-120.661 73.557-50.005 120.661-50.005 89.856 19.157 120.661 50.005 50.005 73.557 50.005 120.661c0 31.616-8.619 61.269-23.637 86.699l480.469 480.469c16.683 16.683 16.683 43.691 0 60.331s-43.691 16.683-60.331 0l-311.168-311.168-108.971 108.971c15.019 25.429 23.637 55.083 23.637 86.699 0 47.104-19.157 89.856-50.005 120.661s-73.557 50.005-120.661 50.005-89.856-19.157-120.661-50.005-50.005-73.557-50.005-120.661 19.157-89.856 50.005-120.661 73.557-50.005 120.661-50.005c31.616 0 61.269 8.619 86.699 23.637z" />
<glyph unicode="&#xe923;" glyph-name="soundcloud" horiz-adv-x="1280" d="M222.8 447.4l11.6-130-11.6-136.6c-0.6-5-4.4-8.8-8.8-8.8s-8.4 3.8-8.4 8.8l-11.2 136.6 11.2 130c0 4.4 3.8 8.4 8.4 8.4 4.4 0 8.2-4 8.8-8.4zM265.6 538.6c-5.6 0-9.4-4.4-10-10l-10-211.2 10-136.6c0.6-5.6 4.4-10 10-10 5 0 9.4 4.4 9.4 10l11.6 136.6-11.6 211.2c0 5.6-4.4 10-9.4 10zM316.6 586.8c-6.2 0-10.6-4.4-11.2-10.6l-8.8-260 8.8-135.6c0.6-6.2 5-10.6 11.2-10.6 5.6 0 10.6 4.4 10.6 10.6l10.6 135.6-10.6 260c0 6.2-5 10.6-10.6 10.6zM14.4 393.6c-2.8 0-4.4-2.2-5-5l-9.4-71.2 9.4-70c0.6-2.8 2.2-5 5-5s4.4 2.2 5 5l11.2 70-11.2 71.2c-0.6 2.8-2.2 5-5 5zM61.6 437.4c-2.8 0-5-2.2-5-5l-12.8-115 12.8-112.2c0-3.4 2.2-5.6 5-5.6s5 2.2 5.6 5l14.4 112.8-14.4 115c-0.6 2.8-2.8 5-5.6 5zM112.2 460.2c-3.4 0-6.2-2.8-6.6-6.6l-11.6-136.2 11.6-131.6c0.6-3.4 3.4-6.2 6.6-6.2 3.4 0 6.2 2.8 6.2 6.2l13.8 131.6-13.8 136.2c0 3.8-2.8 6.6-6.2 6.6zM162.8 464.6c-3.8 0-7.2-2.8-7.2-7.2l-11.6-140 11.6-135.6c0-4.4 3.4-7.2 7.2-7.2s7.2 2.8 7.8 7.2l12.8 135.6-12.8 140c-0.6 4.4-4 7.2-7.8 7.2zM645.6 686.4c-2.2 1.6-5.6 2.8-8.4 2.8-4.4 0-8.4-1.6-11.2-3.8-3.8-3.4-6.2-8.4-6.6-13.4v-1.6l-6.6-353.4 3.4-65 3.4-63.4c0.6-9.4 8.4-17.2 17.8-17.2s17.2 7.8 17.2 17.2l7.8 128.4-7.8 355c-0.8 6-4 11.6-9 14.4zM592.2 655.8c-2.8 1.6-5.6 2.8-8.8 2.8s-6.2-1.2-8.8-2.8c-4.4-2.8-7.2-7.8-7.2-13.4l-0.6-3.4-5.6-321.6s0-0.6 6.2-131.2v-0.6c0-3.4 1.2-6.6 3.4-9.4 3.4-3.8 7.8-6.2 12.8-6.2 4.4 0 8.4 2.2 11.2 5 3.4 2.8 5 6.6 5 11.2l0.6 13.4 6.2 117.2-6.6 325.6c-0.6 5.6-3.4 10.6-7.8 13.4zM369.4 610.8c-6.2 0-11.6-5.6-11.6-12.2l-8.8-281.2 8.8-134.4c0.6-6.6 5.6-11.6 11.6-11.6 6.6 0 11.6 5 12.2 11.6l10 134.4-10 281.2c-0.4 6.6-5.4 12.2-12.2 12.2zM1122.8 485.2c-21.6 0-42.2-4.4-61.2-12.2-12.8 141.6-131.6 252.8-276.6 252.8-35.6 0-70-6.6-100.6-18.8-12.2-4.4-15.6-8.8-15.6-18.4v-499.4c0-10 7.8-17.2 17.2-18.4h436.6c86.6 0 157.2 70 157.2 156.6 0.2 87.2-70.4 157.8-157 157.8zM529.4 605.8c-8.4 0-15-6.6-15.6-15.6l-6.6-273.4 6.6-131.2c0.6-8.4 7.2-15 15.6-15s15 6.6 15 15l7.8 131.2-7.8 273.4c-0.6 9-6.6 15.6-15 15.6zM422.2 621.4c-6.6 0-12.8-6.2-12.8-13.4l-7.8-290.6 7.8-133.8c0.6-7.2 6.2-12.8 12.8-12.8 7.2 0 12.8 5.6 13.4 12.8l8.8 133.8-8.8 290.6c-0.6 7.2-6.2 13.4-13.4 13.4zM475.6 614.6c-7.8 0-13.8-6.2-13.8-13.8l-7.8-283.4 7.8-132.8c0.6-7.8 6.2-13.8 13.8-13.8s13.8 6.2 13.8 13.8l8.4 132.8-8.4 283.4c0 7.8-6 13.8-13.8 13.8z" />
<glyph unicode="&#xe924;" glyph-name="tv" horiz-adv-x="1280" d="M1184 960h-1088c-53.019 0-96-42.981-96-96v0-640c0-53.019 42.981-96 96-96v0h480v-64h-352c-17.673 0-32-14.327-32-32v0-64c0-17.673 14.327-32 32-32v0h832c17.673 0 32 14.327 32 32v0 64c0 17.673-14.327 32-32 32v0h-352v64h480c53.019 0 96 42.981 96 96v0 640c0 53.019-42.981 96-96 96v0zM1152 256h-1024v576h1024z" />
<glyph unicode="&#xe925;" glyph-name="window-restore" d="M928 960h-640c-53 0-96-43-96-96v-96h-96c-53 0-96-43-96-96v-640c0-53 43-96 96-96h640c53 0 96 43 96 96v96h96c53 0 96 43 96 96v640c0 53-43 96-96 96zM64 672c0 17.6 14.4 32 32 32h640c17.6 0 32-14.4 32-32v-160h-704v160zM768 32c0-17.6-14.4-32-32-32h-640c-17.6 0-32 14.4-32 32v416h704v-416zM960 224c0-17.6-14.4-32-32-32h-96v480c0 53-43 96-96 96h-480v96c0 17.6 14.4 32 32 32h640c17.6 0 32-14.4 32-32v-640z" />
<glyph unicode="&#xe926;" glyph-name="star-regular" horiz-adv-x="1152" d="M1056.2 617l-292.2 42.6-130.6 264.8c-23.4 47.2-91.2 47.8-114.8 0l-130.6-264.8-292.2-42.6c-52.4-7.6-73.4-72.2-35.4-109.2l211.4-206-50-291c-9-52.6 46.4-92 92.8-67.4l261.4 137.4 261.4-137.4c46.4-24.4 101.8 14.8 92.8 67.4l-50 291 211.4 206c38 37 17 101.6-35.4 109.2zM777.2 335.4l47.4-276.8-248.6 130.6-248.6-130.6 47.4 276.8-201.2 196 278 40.4 124.4 252 124.4-252 278-40.4-201.2-196z" />
<glyph unicode="&#xe927;" glyph-name="times-circle-solid" d="M512 944c-274 0-496-222-496-496s222-496 496-496 496 222 496 496-222 496-496 496zM755.2 317.8c9.4-9.4 9.4-24.6 0-34l-79.2-79c-9.4-9.4-24.6-9.4-34 0l-130 131.2-130.2-131.2c-9.4-9.4-24.6-9.4-34 0l-79 79.2c-9.4 9.4-9.4 24.6 0 34l131.2 130-131.2 130.2c-9.4 9.4-9.4 24.6 0 34l79.2 79.2c9.4 9.4 24.6 9.4 34 0l130-131.4 130.2 131.2c9.4 9.4 24.6 9.4 34 0l79.2-79.2c9.4-9.4 9.4-24.6 0-34l-131.4-130 131.2-130.2z" />
<glyph unicode="&#xe928;" glyph-name="laptop" horiz-adv-x="1280" d="M1248 224h-96v544c0 70.6-57.44 128-128 128h-768c-70.56 0-128-57.4-128-128v-544h-96c-17.68 0-32-14.32-32-32v-96c0-88.22 71.76-160 160-160h960c88.24 0 160 71.78 160 160v96c0 17.68-14.32 32-32 32zM192 768c0 35.34 28.66 64 64 64h768c35.34 0 64-28.66 64-64v-544h-305.74c-8.12 0-14.040-6.26-15.84-14.18-6.46-28.52-31.96-49.82-62.42-49.82h-128c-30.46 0-55.96 21.3-62.42 49.82-1.8 7.92-7.72 14.18-15.84 14.18h-305.74v544zM1216 96c0-52.94-43.060-96-96-96h-960c-52.94 0-96 43.060-96 96v64h389.5c13.18-37.24 48.76-64 90.5-64h192c41.76 0 77.32 26.76 90.5 64h389.5v-64z" />
<glyph unicode="&#xe929;" glyph-name="wrench" d="M1014.96 725.64c-6 24.34-24.82 43.58-49 50.3-24.2 6.68-50.32-0.22-67.94-17.94l-117.32-117.26-64.88 10.8-10.76 64.82 117.34 117.28c17.68 17.78 24.56 43.84 17.82 67.98-6.76 24.22-26.12 43-50.58 49.060-106.18 26.38-215.82-4.14-293.080-81.38-75.26-75.24-105.2-182.74-81.44-286.54l-367.040-366.88c-31.020-30.94-48.080-72.12-48.080-115.92s17.060-84.98 48.080-115.94c30.94-30.96 72.12-48.020 115.94-48.020 43.76 0 84.94 17.060 115.96 48.020l366.68 366.52c103.58-23.74 211.28 6.28 286.98 81.86 76.18 76.2 107.38 188.54 81.32 293.24zM865.74 500.26c-56.94-56.92-140.4-76.2-218.020-50.42l-28.12 9.38-407.5-407.34c-25.7-25.68-70.58-25.62-96.14 0-12.88 12.84-19.94 29.92-19.94 48.080s7.060 35.22 19.94 48.060l407.68 407.56-9.26 28.060c-25.62 77.8-6.44 161.24 50.080 217.8 40.7 40.64 94.38 62.48 150.080 62.48h2.24l-114.64-114.6 30.26-181.18 181.14-30.18 114.7 114.58c0.64-56.52-21.24-111.040-62.5-152.28zM176.020 143.96c-17.68 0-32-14.32-32-32s14.32-32 32-32 32 14.32 32 32-14.32 32-32 32z" />
<glyph unicode="&#xe92a;" glyph-name="mobile-android" horiz-adv-x="640" d="M448 768v-480h-256v480h256zM544 960h-448c-53 0-96-43-96-96v-832c0-53 43-96 96-96h448c53 0 96 43 96 96v832c0 53-43 96-96 96zM96 0c-17.6 0-32 14.4-32 32v832c0 17.6 14.4 32 32 32h448c17.6 0 32-14.4 32-32v-832c0-17.6-14.4-32-32-32h-448zM488 832h-336c-13.2 0-24-10.8-24-24v-560c0-13.2 10.8-24 24-24h336c13.2 0 24 10.8 24 24v560c0 13.2-10.8 24-24 24zM392 128h-144c-13.2 0-24-10.8-24-24v-16c0-13.2 10.8-24 24-24h144c13.2 0 24 10.8 24 24v16c0 13.2-10.8 24-24 24z" />
<glyph unicode="&#xe92b;" glyph-name="book" d="M896 832v-832h-672c-53.026 0-96 42.98-96 96s42.974 96 96 96h608v768h-640c-70.398 0-128-57.6-128-128v-768c0-70.4 57.602-128 128-128h768v896h-64zM224.056 128v0c-0.018-0.002-0.038 0-0.056 0-17.672 0-32-14.326-32-32s14.328-32 32-32c0.018 0 0.038 0.002 0.056 0.002v-0.002h607.89v64h-607.89z" />
<glyph unicode="&#xe92c;" glyph-name="heartfeather" d="M859.008 711.808c37.547-37.589 56.277-86.656 56.277-135.851s-18.773-98.261-56.277-135.765l-347.008-347.008-347.008 347.008c-37.504 37.504-56.235 86.571-56.235 135.808s18.731 98.304 56.235 135.808 86.571 56.235 135.808 56.235 98.304-18.731 135.808-56.235l45.227-45.227c16.683-16.683 43.691-16.683 60.331 0l45.312 45.312c37.504 37.504 86.571 56.235 135.765 56.192s98.261-18.773 135.765-56.277zM919.339 772.139c-54.144 54.144-125.184 81.237-196.096 81.28s-141.952-27.051-196.139-81.195l-15.104-15.147-15.061 15.061c-54.144 54.144-125.227 81.237-196.139 81.237s-141.995-27.093-196.139-81.237-81.237-125.227-81.237-196.139 27.093-141.995 81.237-196.139l377.173-377.173c16.683-16.683 43.691-16.683 60.331 0l377.173 377.173c54.144 54.144 81.237 125.184 81.28 196.096s-27.051 141.952-81.28 196.181z" />
<glyph unicode="&#xe92d;" glyph-name="badge" d="M512 800c-123.712 0-224-100.288-224-224s100.288-224 224-224 224 100.288 224 224-100.288 224-224 224zM512 416c-88.384 0-160 71.616-160 160s71.616 160 160 160 160-71.616 160-160-71.616-160-160-160zM864.672 402.048c25.696 51.52 40.544 109.248 40.544 170.528 0 213.984-176.064 387.424-393.216 387.424s-393.216-173.44-393.216-387.392c0-61.28 14.848-119.008 40.544-170.528l-159.584-272.352c0 0 101.216-20.32 203.904-41.44 68.48-76.224 136.64-152.288 136.64-152.288l146.752 250.432c8.32-0.544 16.576-1.248 24.992-1.248s16.672 0.704 24.992 1.248l146.72-250.432c0 0 68.16 76.064 136.64 152.288 102.688 21.12 203.904 41.44 203.904 41.44l-159.616 272.32zM332.672 52.16c0 0-49.152 46.624-95.36 91.52-65.536 18.624-131.648 37.632-131.648 37.632l92.736 158.272c53.536-69.792 130.272-121.024 219.104-142.656l-84.832-144.768zM512 255.744c-176.576 0-319.68 143.424-319.68 320.352s143.104 320.352 319.68 320.352 319.68-143.424 319.68-320.352-143.104-320.352-319.68-320.352zM786.72 143.68c-46.208-44.896-95.36-91.52-95.36-91.52l-84.8 144.768c88.8 21.632 165.568 72.864 219.104 142.656l92.736-158.272c-0.032 0-66.144-19.008-131.68-37.632z" />
<glyph unicode="&#xe92e;" glyph-name="shuffle" d="M200.832 55.168l652.501 652.501v-110.336c0-23.552 19.115-42.667 42.667-42.667s42.667 19.115 42.667 42.667v213.333c0 5.803-1.152 11.307-3.243 16.341s-5.163 9.728-9.216 13.781c-0.043 0.043-0.043 0.043-0.085 0.085-3.925 3.925-8.619 7.083-13.781 9.216-5.035 2.091-10.539 3.243-16.341 3.243h-213.333c-23.552 0-42.667-19.115-42.667-42.667s19.115-42.667 42.667-42.667h110.336l-652.501-652.501c-16.683-16.683-16.683-43.691 0-60.331s43.691-16.683 60.331 0zM609.835 268.502l183.168-183.168h-110.336c-23.552 0-42.667-19.115-42.667-42.667s19.115-42.667 42.667-42.667h213.333c5.547 0 11.136 1.067 16.341 3.243s9.899 5.333 13.824 9.259c4.096 4.096 7.168 8.789 9.259 13.824s3.243 10.539 3.243 16.341v213.333c0 23.552-19.115 42.667-42.667 42.667s-42.667-19.115-42.667-42.667v-110.336l-183.168 183.168c-16.683 16.683-43.691 16.683-60.331 0s-16.683-43.691 0-60.331zM140.501 737.835l213.333-213.333c16.683-16.683 43.691-16.683 60.331 0s16.683 43.691 0 60.331l-213.333 213.333c-16.683 16.683-43.691 16.683-60.331 0s-16.683-43.691 0-60.331z" />
<glyph unicode="&#xe92f;" glyph-name="download1" d="M864 960h-704c-70.688 0-128-57.312-128-128v-768c0-70.688 57.312-128 128-128h704c70.688 0 128 57.312 128 128v768c0 70.688-57.312 128-128 128zM928 64c0-35.328-28.672-64-64-64h-704c-35.328 0-64 28.672-64 64v64h832v-64zM928 192h-832v640c0 35.328 28.672 64 64 64h704c35.328 0 64-28.672 64-64v-640zM648.576 534.976l-104.576-126.496v391.52c0 17.664-14.304 32-32 32s-32-14.336-32-32v-392.736l-105.568 127.712c-12.544 12.576-32.864 12.576-45.408 0-12.576-12.608-12.576-32.96 0-45.568l158.112-191.36c6.72-6.688 15.584-9.568 24.352-9.088 8.736-0.48 17.632 2.4 24.352 9.088l158.112 191.36c12.576 12.608 12.576 32.96 0 45.568-12.512 12.544-32.864 12.544-45.376 0z" />
<glyph unicode="&#xe930;" glyph-name="hearttip" d="M934.176 791.52c-116.128 115.072-301.824 117.472-422.112 9.216-120.32 108.256-305.952 105.856-422.144-9.216-119.712-118.528-119.712-310.688 0-429.28 34.208-33.888 353.696-350.112 353.696-350.112 37.856-37.504 99.072-37.504 136.896 0 0 0 349.824 346.304 353.696 350.112 119.744 118.592 119.744 310.752-0.032 429.28zM888.576 407.424l-353.696-350.112c-12.576-12.512-33.088-12.512-45.6 0l-353.696 350.112c-94.4 93.44-94.4 245.472 0 338.912 91.008 90.080 237.312 93.248 333.088 7.104l43.392-39.040 43.36 39.040c95.808 86.144 242.112 83.008 333.12-7.104 94.4-93.408 94.4-245.44 0.032-338.912zM296.096 719.968c8.864 0 16-7.168 16-16s-7.168-16-16-16h-0.032c-57.408 0-103.968-46.56-103.968-103.968v-0.032c0-8.832-7.168-16-16-16s-16 7.168-16 16v0c0 75.072 60.832 135.904 135.872 135.968 0.064 0 0.064 0.032 0.128 0.032z" />
<glyph unicode="&#xe931;" glyph-name="gamepad" horiz-adv-x="1280" d="M960.14 768h-640.14c-0.014 0-0.030 0-0.046 0-176.731 0-320-143.269-320-320s143.269-320 320-320c89.491 0 170.402 36.735 228.476 95.949l0.050 0.051h183.040c58.124-59.265 139.035-96 228.526-96 176.731 0 320 143.269 320 320 0 176.698-143.215 319.946-319.9 320h-0.005zM960 192c-0.226-0.001-0.493-0.001-0.76-0.001-71.329 0-135.79 29.402-181.927 76.747l-18.913 19.254h-236.8l-18.82-19.2c-46.189-47.4-110.651-76.801-181.98-76.801-0.281 0-0.563 0-0.844 0.001h0.043c-141.14 0-256 114.84-256 256s114.86 256 256 256h640c141.22 0 256-114.84 256-256s-114.86-256-256-256zM444.36 487.28h-85.080v85.080c-0.045 10.829-8.811 19.595-19.636 19.64h-39.284c-10.829-0.045-19.595-8.811-19.64-19.636v-85.084h-85.080c-10.829-0.045-19.595-8.811-19.64-19.636v-39.284c0.045-10.829 8.811-19.595 19.636-19.64h85.084v-85.080c0.045-10.829 8.811-19.595 19.636-19.64h39.284c10.829 0.045 19.595 8.811 19.64 19.636v85.084h85.080c10.829 0.045 19.595 8.811 19.64 19.636v39.284c-0.045 10.829-8.811 19.595-19.636 19.64h-0.004zM896 448c-35.346 0-64-28.654-64-64s28.654-64 64-64c35.346 0 64 28.654 64 64v0c0 35.346-28.654 64-64 64v0zM1024 576c-35.346 0-64-28.654-64-64s28.654-64 64-64c35.346 0 64 28.654 64 64v0c0 35.346-28.654 64-64 64v0z" />
<glyph unicode="&#xe932;" glyph-name="bubble" d="M512 736c8.832 0 16-7.168 16-16s-7.2-16-16-16c-170.464 0-320-89.728-320-192 0-8.832-7.168-16-16-16s-16 7.168-16 16c0 121.408 161.184 224 352 224zM512 896c-282.784 0-512-171.936-512-384 0-132.064 88.928-248.512 224.256-317.632 0-0.864-0.256-1.44-0.256-2.368 0-57.376-42.848-119.136-61.696-151.552 0.032 0 0.064 0 0.064 0-1.504-3.52-2.368-7.392-2.368-11.456 0-16 12.96-28.992 28.992-28.992 3.008 0 8.288 0.8 8.16 0.448 100 16.384 194.208 108.256 216.096 134.88 31.968-4.704 64.928-7.328 98.752-7.328 282.72 0 512 171.936 512 384s-229.248 384-512 384zM512 192c-29.344 0-59.456 2.24-89.472 6.624-3.104 0.512-6.208 0.672-9.28 0.672-19.008 0-37.216-8.448-49.472-23.36-13.696-16.672-52.672-53.888-98.72-81.248 12.48 28.64 22.24 60.736 22.912 93.824 0.192 2.048 0.288 4.128 0.288 5.888 0 24.064-13.472 46.048-34.88 56.992-118.592 60.544-189.376 157.984-189.376 260.608 0 176.448 200.96 320 448 320 246.976 0 448-143.552 448-320s-200.992-320-448-320z" />
<glyph unicode="&#xe933;" glyph-name="params" d="M256 767.328v96.672c0 52.928-43.072 96-96 96s-96-43.072-96-96v-96.672c-38.656-29.28-64-75.136-64-127.328s25.344-98.048 64-127.264v-480.736c0-52.928 43.072-96 96-96s96 43.072 96 96v480.736c38.656 29.184 64 75.072 64 127.264s-25.344 98.048-64 127.328zM128 864c0 17.696 14.304 32 32 32s32-14.304 32-32v-67.2c-10.336 2.080-21.024 3.2-32 3.2s-21.664-1.12-32-3.2v67.2zM192 32c0-17.696-14.304-32-32-32s-32 14.304-32 32v451.264c10.336-2.144 21.024-3.264 32-3.264s21.664 1.12 32 3.264v-451.264zM251.68 613.12c-0.512-1.696-0.96-3.36-1.568-5.056-3.040-8.448-6.944-16.448-12.096-23.552-0.128-0.192-0.32-0.32-0.448-0.512-5.568-7.616-12.192-14.368-19.712-20.064-0.128-0.128-0.224-0.192-0.32-0.256-7.712-5.824-16.32-10.496-25.568-13.76-10.016-3.616-20.672-5.92-31.968-5.92s-21.952 2.304-32 5.952c-9.248 3.264-17.856 7.936-25.568 13.76-0.096 0.064-0.192 0.128-0.32 0.256-7.52 5.696-14.144 12.448-19.712 20.064-0.128 0.192-0.32 0.32-0.448 0.512-5.152 7.136-9.056 15.136-12.096 23.552-0.608 1.696-1.056 3.36-1.568 5.056-2.528 8.544-4.288 17.472-4.288 26.848 0 9.44 1.76 18.368 4.32 26.944 0.512 1.696 0.96 3.36 1.568 4.992 3.008 8.448 6.912 16.448 12.096 23.616 0.128 0.192 0.32 0.32 0.448 0.512 5.568 7.552 12.192 14.368 19.712 20.064 0.128 0.064 0.224 0.192 0.32 0.256 7.68 5.728 16.288 10.432 25.536 13.728 10.048 3.584 20.704 5.888 32 5.888s21.952-2.304 32-5.888c9.248-3.328 17.856-8 25.568-13.76 0.096-0.064 0.192-0.192 0.32-0.256 7.52-5.696 14.144-12.512 19.712-20.064 0.128-0.192 0.32-0.32 0.448-0.512 5.152-7.136 9.056-15.136 12.064-23.584 0.608-1.632 1.088-3.296 1.568-4.992 2.56-8.576 4.32-17.504 4.32-26.944 0-9.376-1.76-18.304-4.32-26.88zM960 767.328v96.672c0 52.928-43.072 96-96 96s-96-43.072-96-96v-96.672c-38.688-29.28-64-75.136-64-127.328s25.312-98.048 64-127.264v-480.736c0-52.928 43.072-96 96-96s96 43.072 96 96v480.736c38.624 29.184 64 75.072 64 127.264s-25.376 98.048-64 127.328zM832 864c0 17.696 14.304 32 32 32s32-14.304 32-32v-67.2c-10.368 2.080-21.056 3.2-32 3.2-11.008 0-21.696-1.12-32-3.2v67.2zM896 32c0-17.696-14.304-32-32-32s-32 14.304-32 32v451.264c10.304-2.144 20.992-3.264 32-3.264 10.944 0 21.632 1.12 32 3.264v-451.264zM955.68 613.12c-0.512-1.696-0.992-3.36-1.568-5.056-3.072-8.448-6.944-16.448-12.128-23.552-0.128-0.192-0.32-0.32-0.448-0.512-5.568-7.616-12.192-14.368-19.68-20.064-0.128-0.128-0.256-0.192-0.32-0.256-7.744-5.824-16.32-10.496-25.568-13.76-10.016-3.616-20.704-5.92-31.968-5.92-11.328 0-21.952 2.304-32 5.952-9.248 3.264-17.888 7.936-25.568 13.76-0.128 0.064-0.192 0.128-0.32 0.256-7.552 5.696-14.176 12.448-19.744 20.064-0.128 0.192-0.32 0.32-0.448 0.512-5.12 7.136-9.056 15.136-12.064 23.552-0.64 1.696-1.056 3.36-1.568 5.056-2.528 8.544-4.288 17.472-4.288 26.848 0 9.44 1.76 18.368 4.32 26.944 0.512 1.696 0.928 3.36 1.568 4.992 3.008 8.448 6.944 16.448 12.064 23.616 0.128 0.192 0.32 0.32 0.448 0.512 5.568 7.552 12.192 14.368 19.744 20.064 0.128 0.064 0.192 0.192 0.32 0.256 7.68 5.76 16.32 10.432 25.568 13.76 10.016 3.552 20.64 5.856 31.968 5.856 11.264 0 21.952-2.304 32-5.888 9.248-3.328 17.824-8 25.568-13.76 0.064-0.064 0.192-0.192 0.32-0.256 7.488-5.696 14.112-12.512 19.68-20.064 0.128-0.192 0.32-0.32 0.448-0.512 5.184-7.2 9.056-15.2 12.128-23.616 0.576-1.632 1.056-3.328 1.568-4.992 2.528-8.544 4.288-17.472 4.288-26.912 0-9.376-1.76-18.304-4.32-26.88zM608 383.328v480.672c0 52.928-43.072 96-96 96s-96-43.072-96-96v-480.672c-38.656-29.248-64-75.136-64-127.328s25.344-98.048 64-127.264v-96.736c0-52.928 43.072-96 96-96s96 43.072 96 96v96.736c38.624 29.184 64 75.072 64 127.264s-25.376 98.048-64 127.328zM480 864c0 17.696 14.304 32 32 32s32-14.304 32-32v-451.2c-10.368 2.048-21.056 3.2-32 3.2-10.976 0-21.664-1.12-32-3.2v451.2zM544 32c0-17.696-14.304-32-32-32s-32 14.304-32 32v67.264c10.336-2.144 21.024-3.264 32-3.264 10.944 0 21.632 1.12 32 3.264v-67.264zM603.68 229.12c-0.512-1.696-0.992-3.36-1.568-5.056-3.072-8.448-6.944-16.448-12.128-23.552-0.128-0.192-0.32-0.32-0.448-0.512-5.568-7.616-12.192-14.368-19.68-20.064-0.128-0.128-0.256-0.192-0.32-0.256-7.744-5.824-16.32-10.496-25.568-13.76-10.016-3.616-20.704-5.92-31.968-5.92-11.296 0-21.952 2.304-32 5.952-9.248 3.264-17.856 7.936-25.568 13.76-0.096 0.064-0.192 0.128-0.32 0.256-7.52 5.696-14.144 12.448-19.712 20.064-0.128 0.192-0.32 0.32-0.448 0.512-5.152 7.136-9.056 15.136-12.096 23.552-0.608 1.696-1.056 3.36-1.568 5.056-2.528 8.544-4.288 17.472-4.288 26.848 0 9.44 1.76 18.368 4.32 26.944 0.512 1.696 0.96 3.36 1.568 4.992 3.040 8.448 6.944 16.448 12.096 23.616 0.128 0.192 0.32 0.32 0.448 0.512 5.568 7.552 12.192 14.368 19.712 20.064 0.128 0.064 0.224 0.192 0.32 0.256 7.712 5.76 16.32 10.432 25.568 13.76 10.016 3.552 20.672 5.856 31.968 5.856 11.264 0 21.952-2.304 32-5.888 9.248-3.328 17.824-8 25.568-13.76 0.064-0.064 0.192-0.192 0.32-0.256 7.488-5.696 14.112-12.512 19.68-20.064 0.128-0.192 0.32-0.32 0.448-0.512 5.184-7.2 9.056-15.2 12.128-23.616 0.576-1.632 1.056-3.328 1.568-4.992 2.528-8.544 4.288-17.472 4.288-26.912 0-9.376-1.76-18.304-4.32-26.88z" />
<glyph unicode="&#xe934;" glyph-name="walletbig" d="M512 320c0 35.346 28.654 64 64 64s64-28.654 64-64c0-35.346-28.654-64-64-64s-64 28.654-64 64zM928.032 544c-0.032 0-0.032 0 0 0l-0.032 192v96c0 53.024-43.008 96-96 96h-656c-97.056 0-176-78.976-176-176v-640c0-97.024 78.944-176 176-176h576c97.024 0 176 78.976 176 176v48c0 0 0 0 0.032 0 127.936 96.032 127.936 287.968 0 384zM176 864h656c17.632 0 32-14.336 32-32v-197.888c-10.048 3.584-20.736 5.888-32 5.888h-0.032v160c0 17.696-14.336 32-32 32h-672c-17.664 0-32-14.304-32-32v-126.176c-19.744 20.192-31.968 47.712-31.968 78.176 0 61.856 50.112 112 112 112zM799.968 768h-672v32h672v-32zM799.968 736v-32h-672v32h672zM799.968 672v-32h-623.968c-17.28 0-33.408 4.224-48 11.2v20.8h671.968zM864 112c0-61.856-50.144-112-112-112h-576c-61.888 0-112 50.144-112 112v504.352c30.432-25.184 69.472-40.352 112-40.352h656c17.632 0 32-14.336 32-32v-64h-288c-88.384 0-160-71.616-160-160s71.648-160 160-160h288v-48zM904.864 224h-328.864c-52.928 0-96 43.072-96 96s43.072 96 96 96h288c19.744 0.256 39.328 9.824 51.264 25.728 3.328 4.48 5.92 9.504 8 14.752 0.288 0.704 0.8 1.248 1.056 1.984 23.008-30.176 35.68-67.168 35.68-106.464 0-49.216-19.872-94.88-55.136-128z" />
<glyph unicode="&#xe935;" glyph-name="heart-solid" d="M924.6 834.8c-109.6 93.4-272.6 76.6-373.2-27.2l-39.4-40.6-39.4 40.6c-100.4 103.8-263.6 120.6-373.2 27.2-125.6-107.2-132.2-299.6-19.8-415.8l387-399.6c25-25.8 65.6-25.8 90.6 0l387 399.6c112.6 116.2 106 308.6-19.6 415.8z" />
<glyph unicode="&#xe936;" glyph-name="crown" horiz-adv-x="1280" d="M1072 0h-864c-8.8 0-16-7.2-16-16v-32c0-8.8 7.2-16 16-16h864c8.8 0 16 7.2 16 16v32c0 8.8-7.2 16-16 16zM1168 640c-61.8 0-112-50.2-112-112 0-15.2 3-29.6 8.6-42.8l-112.6-67.6c-10.4-6.2-21.6-9.2-32.8-9.2-22.2 0-43.8 11.6-55.6 32.2l-148.8 260.4c22.6 20.6 37.2 50 37.2 83 0 61.8-50.2 112-112 112s-112-50.2-112-112c0-33 14.6-62.4 37.2-82.8l-148.8-260.4c-11.8-20.8-33.4-32.2-55.6-32.2-11.2 0-22.6 3-32.8 9.2l-112.6 67.6c5.4 13.2 8.6 27.6 8.6 42.8 0 61.8-50.2 112-112 112s-112-50.4-112-112.2 50.2-112 112-112c4 0 7.8 0.8 11.6 1.2l132.4-353.2h768l132.4 353.2c3.8-0.4 7.6-1.2 11.6-1.2 61.8 0 112 50.2 112 112s-50.2 112-112 112zM640 832c26.4 0 48-21.6 48-48s-21.6-48-48-48-48 21.6-48 48 21.6 48 48 48zM112 480c-26.4 0-48 21.6-48 48s21.6 48 48 48 48-21.6 48-48-21.6-48-48-48zM979.6 128h-679.2l-112 298.8 106.8-64c20-12 42.6-18.2 65.8-18.2 45.8 0 88.4 24.8 111.2 64.6l151.2 264.6c5.6-0.8 11-1.6 16.8-1.6s11.2 0.8 16.8 1.6l151-264.8c22.8-39.8 65.4-64.4 111.2-64.4 23.2 0 45.8 6.4 65.8 18.2l106.8 64-112.2-298.8zM1168 480c-26.4 0-48 21.6-48 48s21.6 48 48 48 48-21.6 48-48-21.6-48-48-48z" />
<glyph unicode="&#xe937;" glyph-name="location-arrow" d="M923.8 960c-11.46 0-23.18-2.2-34.78-7.040l-831.54-383.78c-95.94-44.78-63.96-185.5 38.38-185.5h351.82v-351.82c0-60.020 48.42-95.86 97.48-95.86 34.6 0 69.5 17.8 88.020 57.48l383.8 831.56c27.14 65.18-28.7 134.96-93.18 134.96zM958.9 851.84l-383.7-831.32c-6.36-13.64-16.48-20.56-30.060-20.56-11.6 0-33.52 6.66-33.52 31.88v415.8h-415.76c-22.9 0-29.28 17.66-30.98 25.26-2.2 9.86-2.54 27.96 19.4 38.2l829.36 382.82c3.42 1.42 6.74 2.1 10.18 2.1 10.84 0 22.98-7.3 30.22-18.16 4.38-6.58 8.64-16.82 4.86-26.020z" />
<glyph unicode="&#xe938;" glyph-name="code" d="M712.832 140.502l256 256c16.683 16.683 16.683 43.691 0 60.331l-256 256c-16.683 16.683-43.691 16.683-60.331 0s-16.683-43.691 0-60.331l225.835-225.835-225.835-225.835c-16.683-16.683-16.683-43.691 0-60.331s43.691-16.683 60.331 0zM311.168 712.832l-256-256c-16.683-16.683-16.683-43.691 0-60.331l256-256c16.683-16.683 43.691-16.683 60.331 0s16.683 43.691 0 60.331l-225.835 225.835 225.835 225.835c16.683 16.683 16.683 43.691 0 60.331s-43.691 16.683-60.331 0z" />
<glyph unicode="&#xe939;" glyph-name="money" d="M1005.28 621.248l-320 320c-15.872 15.872-38.88 22.24-60.672 16.864-11.488-2.816-21.76-8.736-29.888-16.864-7.264-7.264-12.736-16.256-15.872-26.304-14.496-47.008-39.552-87.872-76.64-124.928-49.536-49.504-114.048-87.008-182.304-126.656-72.448-41.984-147.296-85.504-208.64-146.816-52.128-52.192-87.616-110.24-108.416-177.632-7.008-22.752-0.896-47.36 15.872-64.192l320-320c15.872-15.872 38.88-22.24 60.672-16.864 11.488 2.88 21.76 8.736 29.888 16.864 7.264 7.264 12.736 16.256 15.872 26.368 14.528 47.008 39.584 87.872 76.704 124.928 49.504 49.504 113.984 86.944 182.304 126.56 72.384 42.048 147.264 85.568 208.576 146.88 52.128 52.128 87.616 110.24 108.448 177.632 6.976 22.72 0.832 47.424-15.904 64.16zM384 0c-105.984 105.984-214.016 214.048-320 320 90.944 294.432 485.12 281.568 576 576 105.984-105.952 214.048-214.016 320.064-320-90.976-294.368-485.152-281.568-576.064-576zM625.984 483.2c-10.432 8.736-20.928 14.688-31.488 17.632-10.496 2.944-20.992 4.128-31.616 3.36-10.496-0.8-21.248-3.2-32-7.328-10.752-4.192-21.568-8.736-32.448-14.016-17.184 19.744-34.368 39.264-51.552 57.376 7.744 7.008 15.264 10.56 22.496 10.816 7.264 0.32 14.24-0.448 20.864-2.112 6.752-1.696 12.928-3.136 18.624-4.256 5.76-1.12 10.752 0.128 15.136 3.808 4.64 4 7.2 9.184 7.552 15.424 0.32 6.304-2.048 12.448-7.328 18.432-6.752 7.744-14.88 12.448-24.64 14.176-9.632 1.696-19.488 1.568-29.76-0.672-10.112-2.304-19.744-6.112-28.864-11.488s-16.448-10.88-21.888-16.256c-2.080 1.984-4.16 3.936-6.24 5.888-2.304 2.112-5.184 3.264-8.64 3.2-3.488 0-6.368-1.504-8.736-4.256-2.304-2.688-3.36-5.824-2.944-9.12 0.32-3.424 1.696-6.048 4.064-8.064 2.080-1.76 4.16-3.488 6.24-5.312-8.192-9.888-14.944-20.8-20.256-32.32-5.376-11.552-8.576-23.008-9.76-34.112-1.248-11.2-0.064-21.44 3.36-30.944 3.424-9.568 9.76-17.696 19.008-25.376 15.072-12.512 32.8-17.824 53.376-16.64 20.512 1.248 42.624 7.36 66.4 20.128 18.88-21.824 37.824-43.488 56.736-63.616-8-6.752-15.008-10.624-21.184-11.872-6.176-1.312-11.68-1.184-16.672 0.32-4.992 1.568-9.632 3.808-13.888 6.688-4.256 2.944-8.448 5.44-12.64 7.488-4.128 2.048-8.384 3.2-12.736 3.264s-8.992-2.048-14.112-6.432c-5.248-4.576-7.872-9.888-7.872-15.872 0-5.952 2.752-12 8.128-18.112 5.44-6.112 12.512-11.264 21.056-15.328s18.208-6.624 28.832-7.328c10.624-0.736 21.824 0.864 33.632 5.248 11.872 4.32 23.616 12.128 35.2 23.744 5.568-5.44 11.2-10.624 16.8-15.616 2.368-2.048 5.248-3.072 8.736-2.816 3.36 0.128 6.304 1.696 8.64 4.512 2.368 2.88 3.36 6.048 3.008 9.376-0.32 3.36-1.696 5.952-4 7.808-5.632 4.512-11.264 9.248-16.864 14.24 9.568 11.744 17.248 24.128 22.944 36.384 5.696 12.32 9.056 24.192 10.176 35.2 1.12 11.072-0.192 21.056-3.808 30.112-3.584 9.184-9.952 17.056-19.072 24.64zM447.072 461.504c-9.056-0.384-16.96 2.624-23.872 9.312-2.944 2.816-4.992 6.24-6.24 10.304-1.312 4.064-1.76 8.512-1.248 13.376 0.448 4.8 1.888 9.824 4.384 14.88 2.368 5.056 5.888 10.112 10.368 15.008 16.224-16.128 32.416-33.824 48.64-52.128-12.288-6.752-22.976-10.368-32.032-10.752zM598.016 397.44c-2.88-5.312-6.176-10.048-10.048-14.176-17.952 18.112-35.872 38.016-53.76 58.432 4.576 2.048 9.376 4.192 14.56 6.368s10.368 3.616 15.552 4.512c5.312 0.8 10.56 0.576 15.808-0.672 5.184-1.312 10.112-4.128 14.688-8.576 4.512-4.512 7.36-9.184 8.512-14.24 1.248-5.12 1.312-10.304 0.448-15.616-0.928-5.344-2.816-10.656-5.76-16.032zM470.944 250.24c6.304 5.088 15.584 4.832 21.376-1.056 6.272-6.24 6.272-16.448 0-22.688-0.512-0.512-1.056-0.864-1.632-1.312l0.064-0.064c-20.256-15.392-36.896-29.248-54.848-47.2-16.224-16.192-30.88-33.248-43.552-50.56l-20.448-28c-0.64-1.152-1.408-2.208-2.368-3.2-6.272-6.24-16.48-6.24-22.72 0-5.44 5.44-6.112 13.824-2.112 20.064l-0.064 0.064 21.888 29.888c13.664 18.688 29.376 36.992 46.752 54.368 18.080 18.144 37.6 34.336 57.6 49.696h0.064zM588.096 713.12c16.192 16.192 30.816 33.184 43.52 50.592l21.248 29.12c0.768 1.376 1.632 2.752 2.816 3.936 6.304 6.304 16.512 6.304 22.816 0 5.984-6.016 6.24-15.52 0.8-21.888l0.064-0.064-21.888-30.016c-13.696-18.688-29.376-36.928-46.752-54.304-18.080-18.080-37.568-34.336-57.568-49.696l-0.128 0.064c-6.368-5.856-16.256-5.728-22.368 0.448-6.304 6.304-6.304 16.576 0 22.88 1.12 1.184 2.432 2.016 3.744 2.752 18.816 14.368 36.96 29.44 53.696 46.176z" />
<glyph unicode="&#xe93a;" glyph-name="tag1" d="M962.88 959.744h-429.28c-33.888 0-40.064-14.784-72.352-48.576l-422.56-421.248c-51.872-51.68-51.872-135.52 0-187.232l328.672-327.68c51.872-51.68 135.936-51.68 187.84 0l422.56 421.28c27.2 27.136 46.432 40.64 46.432 74.4v427.936c0 33.76-27.456 61.12-61.312 61.12zM508.224 21.824c-25.952-25.856-68-25.856-93.92 0l-328.672 327.68c-25.952 25.856-25.952 67.744 0 93.6l47.424 47.328 421.6-422.272-46.432-46.336zM962.88 501.248c0-16.864-15.552-41.664-32.064-58.144l-328.704-327.68-422.080 421.792 328.192 327.168c15.072 15.040 39.072 34.24 56 34.24h367.936c16.928 0 30.688-13.696 30.688-30.56v-366.816zM625.632 747.36c-51.872-51.712-51.872-135.52 0-187.264 51.808-51.68 135.936-51.68 187.808 0 51.808 51.712 51.808 135.52 0 187.264-51.872 51.712-136 51.712-187.808 0zM766.432 606.944c-25.952-25.856-67.936-25.856-93.888 0s-25.952 67.744 0 93.632c25.952 25.856 67.936 25.856 93.888 0 25.952-25.888 25.952-67.808 0-93.632z" />
<glyph unicode="&#xe93b;" glyph-name="sun1" d="M217.856 696.896c12.512-12.512 32.736-12.512 45.248 0s12.512 32.736 0 45.248l-67.872 67.872c-12.512 12.512-32.736 12.512-45.248 0s-12.512-32.736 0-45.248l67.872-67.872zM128 480h-96c-17.696 0-32-14.304-32-32s14.304-32 32-32h96c17.696 0 32 14.304 32 32s-14.304 32-32 32zM819.872 711.072l67.264 67.232c12.384 12.416 12.384 32.48 0 44.832s-32.448 12.384-44.832 0l-67.232-67.264c-12.384-12.384-12.384-32.448 0-44.8 12.352-12.416 32.416-12.416 44.8 0zM512 800c17.696 0 32 14.304 32 32v96c0 17.696-14.304 32-32 32s-32-14.304-32-32v-96c0-17.696 14.304-32 32-32zM237.12 217.952l-67.264-67.264c-12.384-12.384-12.384-32.448 0-44.8s32.448-12.384 44.8 0l67.264 67.264c12.384 12.384 12.384 32.448 0 44.8s-32.416 12.352-44.8 0zM806.144 199.104c-12.512 12.512-32.736 12.512-45.248 0s-12.512-32.736 0-45.248l67.872-67.872c12.512-12.512 32.736-12.512 45.248 0 12.512 12.48 12.512 32.736 0 45.248l-67.872 67.872zM992 480h-96c-17.696 0-32-14.304-32-32s14.304-32 32-32h96c17.696 0 32 14.304 32 32s-14.304 32-32 32zM512 96c-17.696 0-32-14.304-32-32v-96c0-17.696 14.304-32 32-32s32 14.304 32 32v96c0 17.696-14.304 32-32 32zM512 736.192c-159.168 0-288.192-129.024-288.192-288.192s129.024-288.192 288.192-288.192 288.192 129.024 288.192 288.192-129.024 288.192-288.192 288.192z" />
<glyph unicode="&#xe93c;" glyph-name="moon1" d="M520.192 448c0 220.8 143.328 408.448 343.808 480.288-56.224 20.16-116.704 31.712-180.096 31.712-289.344 0-523.904-229.248-523.904-512 0-282.784 234.56-512 523.904-512 63.36 0 123.872 11.552 180.096 31.712-200.48 71.84-343.808 259.456-343.808 480.288z" />
<glyph unicode="&#xe93d;" glyph-name="anchor" d="M597.333 725.334c0-23.595-9.515-44.843-25.003-60.331s-36.736-25.003-60.331-25.003-44.843 9.515-60.331 25.003-25.003 36.736-25.003 60.331 9.515 44.843 25.003 60.331 36.736 25.003 60.331 25.003 44.843-9.515 60.331-25.003 25.003-36.736 25.003-60.331zM213.333 469.334h-128c-23.552 0-42.667-19.115-42.667-42.667 0-129.579 52.565-246.997 137.472-331.861s202.283-137.472 331.861-137.472 246.997 52.565 331.861 137.472 137.472 202.283 137.472 331.861c0 23.552-19.115 42.667-42.667 42.667h-128c-23.552 0-42.667-19.115-42.667-42.667s19.115-42.667 42.667-42.667h82.987c-9.813-89.003-50.048-168.789-110.123-228.864s-139.861-100.309-228.864-110.123v515.029c29.995 7.723 56.832 23.424 77.995 44.587 30.848 30.848 50.005 73.6 50.005 120.704s-19.157 89.856-50.005 120.661-73.557 50.005-120.661 50.005-89.856-19.157-120.661-50.005-50.005-73.557-50.005-120.661 19.157-89.856 50.005-120.661c21.163-21.205 48-36.907 77.995-44.629v-515.029c-89.003 9.813-168.789 50.048-228.864 110.123s-100.309 139.861-110.123 228.864h82.987c23.552 0 42.667 19.115 42.667 42.667s-19.115 42.667-42.667 42.667z" />
<glyph unicode="&#xe93e;" glyph-name="compass" d="M981.333 426.667c0 129.579-52.565 246.997-137.472 331.861s-202.283 137.472-331.861 137.472-246.997-52.565-331.861-137.472-137.472-202.283-137.472-331.861 52.565-246.997 137.472-331.861 202.283-137.472 331.861-137.472 246.997 52.565 331.861 137.472 137.472 202.283 137.472 331.861zM896 426.667c0-106.069-42.923-201.984-112.469-271.531s-165.461-112.469-271.531-112.469-201.984 42.923-271.531 112.469-112.469 165.461-112.469 271.531 42.923 201.984 112.469 271.531 165.461 112.469 271.531 112.469 201.984-42.923 271.531-112.469 112.469-165.461 112.469-271.531zM733.397 594.091c2.816 8.363 3.072 17.835 0 26.965-7.467 22.357-31.616 34.432-53.973 26.965l-271.36-90.453c-12.373-4.181-22.571-13.781-26.965-26.965l-90.453-271.36c-2.816-8.363-3.072-17.835 0-26.965 7.467-22.357 31.616-34.432 53.973-26.965l271.36 90.453c12.373 4.181 22.571 13.781 26.965 26.965zM625.451 540.118l-56.747-170.155-170.155-56.747 56.704 170.155z" />
<glyph unicode="&#xe93f;" glyph-name="clonesolid" d="M928 960c53.020 0 96-42.98 96-96v-576c0-53.020-42.98-96-96-96h-576c-53.020 0-96 42.98-96 96v576c0 53.020 42.98 96 96 96h576zM352 128c-88.224 0-160 71.776-160 160v416h-96c-53.020 0-96-42.98-96-96v-576c0-53.020 42.98-96 96-96h576c53.020 0 96 42.98 96 96v96h-416z" />
<glyph unicode="&#xe999;" glyph-name="bug" d="M1024 384v64h-193.29c-5.862 72.686-31.786 139.026-71.67 192.25h161.944l70.060 280.24-62.090 15.522-57.94-231.76h-174.68c-0.892 0.694-1.796 1.374-2.698 2.056 6.71 19.502 10.362 40.422 10.362 62.194 0.002 105.76-85.958 191.498-191.998 191.498s-192-85.738-192-191.5c0-21.772 3.65-42.692 10.362-62.194-0.9-0.684-1.804-1.362-2.698-2.056h-174.68l-57.94 231.76-62.090-15.522 70.060-280.24h161.944c-39.884-53.222-65.806-119.562-71.668-192.248h-193.29v-64h193.37c3.802-45.664 15.508-88.812 33.638-127.75h-123.992l-70.060-280.238 62.090-15.524 57.94 231.762h112.354c58.692-78.032 147.396-127.75 246.66-127.75s187.966 49.718 246.662 127.75h112.354l57.94-231.762 62.090 15.524-70.060 280.238h-123.992c18.13 38.938 29.836 82.086 33.636 127.75h193.37z" />
<glyph unicode="&#xe9a9;" glyph-name="fire1" d="M321.008-64c-68.246 142.008-31.902 223.378 20.55 300.044 57.44 83.956 72.244 167.066 72.244 167.066s45.154-58.7 27.092-150.508c79.772 88.8 94.824 230.28 82.782 284.464 180.314-126.012 257.376-398.856 153.522-601.066 552.372 312.532 137.398 780.172 65.154 832.85 24.082-52.676 28.648-141.85-20-185.126-82.352 312.276-285.972 376.276-285.972 376.276 24.082-161.044-87.296-337.144-194.696-468.73-3.774 64.216-7.782 108.528-41.55 169.98-7.58-116.656-96.732-211.748-120.874-328.628-32.702-158.286 24.496-274.18 241.748-396.622z" />
<glyph unicode="&#xe9aa;" glyph-name="lab" d="M956.29 155.518l-316.29 527.024v213.458h32c17.6 0 32 14.4 32 32s-14.4 32-32 32h-320c-17.6 0-32-14.4-32-32s14.4-32 32-32h32v-213.458l-316.288-527.024c-72.442-120.734-16.512-219.518 124.288-219.518h640c140.8 0 196.73 98.784 124.29 219.518zM241.038 320l206.962 344.938v231.062h128v-231.062l206.964-344.938h-541.926z" />
<glyph unicode="&#xe9d2;" glyph-name="bookmark" d="M192 960v-1024l320 320 320-320v1024z" />
<glyph unicode="&#xe9d7;" glyph-name="star-empty" d="M1024 562.95l-353.78 51.408-158.22 320.582-158.216-320.582-353.784-51.408 256-249.538-60.432-352.352 316.432 166.358 316.432-166.358-60.434 352.352 256.002 249.538zM512 206.502l-223.462-117.48 42.676 248.83-180.786 176.222 249.84 36.304 111.732 226.396 111.736-226.396 249.836-36.304-180.788-176.222 42.678-248.83-223.462 117.48z" />
<glyph unicode="&#xe9d8;" glyph-name="star-half" d="M1024 562.95l-353.78 51.408-158.22 320.582-158.216-320.582-353.784-51.408 256-249.538-60.432-352.352 316.432 166.358 316.432-166.358-60.434 352.352 256.002 249.538zM512 206.502l-0.942-0.496 0.942 570.768 111.736-226.396 249.836-36.304-180.788-176.222 42.678-248.83-223.462 117.48z" />
<glyph unicode="&#xe9d9;" glyph-name="star-full" d="M1024 562.95l-353.78 51.408-158.22 320.582-158.216-320.582-353.784-51.408 256-249.538-60.432-352.352 316.432 166.358 316.432-166.358-60.434 352.352 256.002 249.538z" />
<glyph unicode="&#xea5c;" glyph-name="font" d="M799.596 943.792c-90.526 0-148.62 16.208-241.848 16.208-301.284 0-441.792-171.584-441.792-345.872 0-102.678 48.64-136.458 144.564-136.458-6.758 14.864-18.914 31.080-18.914 104.034 0 204.010 77.006 263.458 175.636 267.51 0 0-80.918-793.374-315.778-888.542v-24.672h316.594l108.026 512h197.844l44.072 128h-214.908l51.944 246.19c59.446-12.156 117.542-24.316 167.532-24.316 62.148 0 118.894 18.914 149.968 162.126-37.826-12.16-78.362-16.208-122.94-16.208z" />
<glyph unicode="&#xf002;" glyph-name="search" d="M1017-3.2l-258 258c-4.6 4.6-10.6 7-17 7h-20.6c68.6 74.2 110.6 173.2 110.6 282.2 0 229.8-186.2 416-416 416s-416-186.2-416-416 186.2-416 416-416c109 0 208 42 282.2 110.4v-20.4c0-6.4 2.6-12.4 7-17l258-258c9.4-9.4 24.6-9.4 34 0l19.8 19.8c9.4 9.4 9.4 24.6 0 34zM416 192c-194.6 0-352 157.4-352 352s157.4 352 352 352 352-157.4 352-352-157.4-352-352-352z" />
<glyph unicode="&#xf004;" glyph-name="heart" d="M924.6 834.6c-109 92.8-272 77.4-373.2-27l-39.4-40.8-39.4 40.6c-81.6 84.4-246.2 135.2-373.2 27.2-125.6-107.2-132.2-299.6-19.8-415.6l387-399.6c12.4-12.8 28.8-19.4 45.2-19.4s32.8 6.4 45.2 19.4l387 399.6c112.8 116 106.2 308.4-19.4 415.6zM898.4 463.4l-385.6-399.6-387.2 399.6c-76.8 79.2-92.8 230.2 15.4 322.4 109.6 93.6 238.4 25.8 285.6-23l85.4-88.2 85.4 88.2c46.4 48 176.4 116 285.6 23 108-92 92.2-243 15.4-322.4z" />
<glyph unicode="&#xf007;" glyph-name="user" d="M874.040 298.040c-55.766 55.764-122.142 97.046-194.562 122.036 77.564 53.422 128.522 142.828 128.522 243.924 0 163.214-132.786 296-296 296s-296-132.786-296-296c0-101.096 50.958-190.502 128.524-243.924-72.42-24.99-138.796-66.272-194.562-122.036-96.704-96.706-149.962-225.28-149.962-362.040h80c0 238.206 193.794 432 432 432s432-193.794 432-432h80c0 136.76-53.258 265.334-149.96 362.040zM512 448c-119.102 0-216 96.896-216 216s96.898 216 216 216c119.102 0 216-96.896 216-216s-96.898-216-216-216z" />
<glyph unicode="&#xf00c;" glyph-name="check" d="M871.696 793.068l-526.088-526.088-193.304 193.304c-9.372 9.372-24.568 9.372-33.942 0l-56.568-56.568c-9.372-9.372-9.372-24.568 0-33.942l266.842-266.842c9.372-9.372 24.568-9.372 33.942 0l599.626 599.626c9.372 9.372 9.372 24.568 0 33.942l-56.568 56.568c-9.372 9.372-24.568 9.372-33.94 0z" />
<glyph unicode="&#xf00d;" glyph-name="times" horiz-adv-x="640" d="M415.2 448l215.44 215.44c12.46 12.46 12.46 32.68 0 45.16l-50.060 50.060c-12.46 12.46-32.68 12.46-45.16 0l-215.42-215.46-215.44 215.44c-12.46 12.46-32.68 12.46-45.16 0l-50.040-50.040c-12.46-12.46-12.46-32.68 0-45.16l215.44-215.44-215.44-215.44c-12.46-12.46-12.46-32.68 0-45.16l50.060-50.060c12.46-12.46 32.68-12.46 45.16 0l215.42 215.46 215.44-215.44c12.46-12.46 32.68-12.46 45.16 0l50.060 50.060c12.46 12.46 12.46 32.68 0 45.16l-215.46 215.42z" />
<glyph unicode="&#xf00e;" glyph-name="search-plus" d="M639.6 552v-16c0-13.2-10.8-24-24-24h-168v-168c0-13.2-10.8-24-24-24h-16c-13.2 0-24 10.8-24 24v168h-168c-13.2 0-24 10.8-24 24v16c0 13.2 10.8 24 24 24h168v168c0 13.2 10.8 24 24 24h16c13.2 0 24-10.8 24-24v-168h168c13.2 0 24-10.8 24-24zM1016.6-34l-22.6-22.6c-9.4-9.4-24.6-9.4-34 0l-258 258c-4.6 4.6-7 10.6-7 17v17c-73.8-66.8-171.6-107.4-279-107.4-228.4 0-413 182.2-416 410.6-3 234 187.4 424.4 421.4 421.4 228.4-3 410.6-187.6 410.6-416 0-107.4-40.6-205.2-107.4-279h17c6.4 0 12.4-2.6 17-7l258-258c9.4-9.4 9.4-24.6 0-34zM768 544c0 194.6-157.4 352-352 352s-352-157.4-352-352 157.4-352 352-352 352 157.4 352 352z" />
<glyph unicode="&#xf013;" glyph-name="cog" d="M965.392 361.448l-65.22 37.654c1.958 14.684 3.075 31.661 3.075 48.899s-1.117 34.215-3.284 50.863l0.209-1.964 65.22 37.654c19.152 11.056 28.39 33.804 22.092 55.002-22.428 75.498-62.35 143.456-115.070 199.19-15.268 16.14-39.634 19.672-58.874 8.564l-65.124-37.596c-24.475 18.797-52.351 35.208-82.151 47.995l-2.527 0.965v75.228c0 22.26-15.304 41.608-36.968 46.734-75.288 17.818-154.236 17.82-229.54 0-21.662-5.126-36.968-24.472-36.968-46.734v-75.228c-32.327-13.752-60.203-30.162-85.603-49.641l0.925 0.681-65.124 37.596c-19.242 11.108-43.608 7.576-58.874-8.564-52.72-55.734-92.642-123.694-115.070-199.19-6.298-21.198 2.94-43.944 22.092-55.002l65.22-37.654c-1.958-14.684-3.075-31.661-3.075-48.899s1.117-34.215 3.284-50.863l-0.209 1.964-65.22-37.654c-19.152-11.056-28.39-33.804-22.092-55.002 22.428-75.496 62.35-143.456 115.070-199.19 15.268-16.14 39.634-19.672 58.874-8.566l65.124 37.596c24.474-18.798 52.351-35.207 82.151-47.994l2.527-0.964v-75.228c0-22.26 15.304-41.608 36.968-46.734 75.29-17.818 154.236-17.82 229.54 0 21.662 5.126 36.968 24.472 36.968 46.734v75.228c32.326 13.752 60.203 30.162 85.604 49.64l-0.926-0.682 65.124-37.596c19.24-11.108 43.606-7.576 58.874 8.566 52.72 55.734 92.642 123.694 115.070 199.19 6.298 21.198-2.94 43.944-22.092 55.002zM834.434 160.526l-92.618 53.48c-53.976-46.142-73.118-57.752-142.078-82.118v-106.958c-26.375-5.694-56.676-8.955-87.738-8.955s-61.363 3.261-90.578 9.459l2.84-0.504v106.958c-67.242 23.758-86.71 34.79-142.078 82.118l-92.618-53.48c-39.42 44.18-69.378 95.978-87.858 151.916l92.658 53.48c-13.070 70.834-13.076 93.288 0 164.158l-92.658 53.48c18.48 55.938 48.44 107.738 87.858 151.938l92.618-53.52c54.754 46.868 74.126 58.13 142.078 82.138v106.956c26.376 5.703 56.675 8.97 87.738 8.97s61.363-3.267 90.575-9.475l-2.837 0.505v-106.958c67.956-24.010 87.33-35.274 142.078-82.138l92.618 53.52c39.418-44.198 69.378-95.998 87.858-151.938l-92.658-53.48c13.072-70.852 13.076-93.288 0-164.158l92.658-53.48c-18.48-55.936-48.438-107.736-87.858-151.914zM512 640c-105.87 0-192-86.13-192-192s86.13-192 192-192 192 86.13 192 192-86.13 192-192 192zM512 320c-70.58 0-128 57.42-128 128s57.42 128 128 128 128-57.42 128-128-57.42-128-128-128z" />
<glyph unicode="&#xf015;" glyph-name="home" horiz-adv-x="1152" d="M1140.48 465.18l-116.48 95.78v191.040c0 8.837-7.163 16-16 16v0h-64c-8.71-0.055-15.766-7.062-15.9-15.747v-112.453l-280.36 230.2c-19.291 16.149-44.37 25.956-71.74 25.956s-52.45-9.807-71.916-26.099l0.176 0.143-492.74-404.82c-7.027-5.91-11.462-14.707-11.462-24.54 0-7.841 2.82-15.024 7.502-20.589l-0.040 0.049 20.48-24.6c5.91-7.022 14.703-11.452 24.532-11.452 7.836 0 15.014 2.817 20.577 7.493l-0.049-0.040 54.94 45.12v-372.62c0.102-35.305 28.695-63.898 63.99-64h256.010c35.305 0.102 63.898 28.695 64 63.99v208.010h128v-208c0.102-35.305 28.695-63.898 63.99-64h256.010c35.147 0.077 63.65 28.412 64 63.487v373.173l55.060-45.24c5.514-4.636 12.692-7.452 20.528-7.452 9.828 0 18.622 4.431 24.492 11.404l0.040 0.049 20.46 24.58c4.647 5.518 7.471 12.704 7.471 20.55 0 9.882-4.48 18.718-11.519 24.588l-0.051 0.042zM927.7 96h-191.7v208c-0.102 35.305-28.695 63.898-63.99 64h-192.010c-35.305-0.102-63.898-28.695-64-63.99v-208.010h-192v419.46l352 289.24 352-289.12z" />
<glyph unicode="&#xf019;" glyph-name="download" d="M432 960h160c26.6 0 48-21.4 48-48v-336h175.4c35.6 0 53.4-43 28.2-68.2l-304.2-304.4c-15-15-39.6-15-54.6 0l-304.6 304.4c-25.2 25.2-7.4 68.2 28.2 68.2h175.6v336c0 26.6 21.4 48 48 48zM1024 208v-224c0-26.6-21.4-48-48-48h-928c-26.6 0-48 21.4-48 48v224c0 26.6 21.4 48 48 48h293.4l98-98c40.2-40.2 105-40.2 145.2 0l98 98h293.4c26.6 0 48-21.4 48-48zM776 32c0 22-18 40-40 40s-40-18-40-40 18-40 40-40 40 18 40 40zM904 32c0 22-18 40-40 40s-40-18-40-40 18-40 40-40 40 18 40 40z" />
<glyph unicode="&#xf01c;" glyph-name="inbox" horiz-adv-x="1152" d="M1133.638 505.246l-208.884 287.218c-17.658 24.078-45.844 39.536-77.64 39.536h-542.228c0 0-0.001 0-0.001 0-31.795 0-59.98-15.458-77.449-39.268l-0.188-0.268-208.886-287.218c-11.474-15.625-18.362-35.239-18.362-56.463 0 0 0-0.001 0-0.001v0-288.782c0-53.020 42.98-96 96-96h960c53.020 0 96 42.98 96 96v288.782c0 0 0 0.001 0 0.001 0 21.223-6.888 40.838-18.55 56.731l0.188-0.268zM279.006 754.822c5.896 8.014 15.285 13.162 25.877 13.178h542.233c10.204 0 19.878-4.926 25.88-13.178l176.596-242.822h-273.146l-64-128h-272.892l-64 128h-273.146l176.598 242.822zM1088 416v-256c0-17.646-14.356-32-32-32h-960c-17.644 0-32 14.354-32 32v256c0 17.674 14.326 32 32 32h240l64-128h352l64 128h240c17.674 0 32-14.326 32-32z" />
<glyph unicode="&#xf021;" glyph-name="sync" d="M1000 944h-55.422c-13.478 0-24.314-11.096-23.994-24.572l4.694-197.15c-88.854 133.636-240.766 221.722-413.278 221.722-242.374 0-444.134-173.848-487.408-403.648-2.776-14.738 8.616-28.352 23.614-28.352h57.152c11.348 0 21.084 7.964 23.474 19.058 38.050 176.686 195.002 308.942 383.168 308.942 159.090 0 295.884-94.564 357.352-230.604l-252.78 6.018c-13.474 0.32-24.572-10.514-24.572-23.994v-55.42c0-13.254 10.746-24 24-24h384c13.254 0 24 10.746 24 24v384c0 13.254-10.746 24-24 24zM975.794 384h-57.152c-11.348 0-21.084-7.964-23.474-19.058-38.050-176.686-195.002-308.942-383.168-308.942-159.092 0-295.884 94.564-357.352 230.604l252.78-6.018c13.474-0.32 24.572 10.514 24.572 23.994v55.42c0 13.254-10.746 24-24 24h-384c-13.254 0-24-10.746-24-24v-384c0-13.254 10.746-24 24-24h55.422c13.478 0 24.314 11.096 23.994 24.572l-4.694 197.15c88.854-133.636 240.766-221.722 413.278-221.722 242.374 0 444.134 173.848 487.408 403.648 2.776 14.738-8.616 28.352-23.614 28.352z" />
<glyph unicode="&#xf024;" glyph-name="flag" d="M672.348 800c-98.264 0-186.61 64-323.826 64-62.602 0-116.606-12.964-161.442-30.336 3.123 9.062 4.926 19.505 4.926 30.369 0 3.906-0.233 7.758-0.686 11.542l0.045-0.457c-5.23 45.732-43.030 81.694-88.962 84.674-55.918 3.628-102.402-40.654-102.402-95.792 0-35.528 19.314-66.524 48-83.124v-812.876c0-17.674 14.326-32 32-32h32c17.674 0 32 14.326 32 32v166.886c75.738 34.554 142.518 57.114 255.652 57.114 98.264 0 186.61-64 323.826-64 116.958 0 203.944 45.234 257.096 79.962 27.118 17.716 43.426 47.936 43.426 80.328v479.836c0 68.918-70.528 115.536-133.808 88.234-71.806-30.978-146.91-56.36-217.844-56.36zM928 288c-43.566-30.824-121.648-64-204.522-64-119.89 0-204.004 64-323.826 64-86.722 0-192.758-18.806-255.652-48v464c43.568 30.824 121.648 64 204.522 64 119.89 0 204.004-64 323.826-64 86.542 0 192.64 34.732 255.652 64v-480z" />
<glyph unicode="&#xf02b;" glyph-name="tag" d="M995.882 508.118l-423.764 423.764c-17.373 17.373-41.372 28.118-67.882 28.118h-408.236c-53.020 0-96-42.98-96-96v-408.236c0 0 0-0.001 0-0.001 0-26.509 10.745-50.509 28.118-67.881l423.764-423.764c37.49-37.49 98.274-37.492 135.764 0l408.236 408.236c37.49 37.49 37.49 98.274 0 135.764zM519.772 32.008l-423.772 423.756v408.236h408.236l423.764-423.764-408.228-408.228zM384 672c0-53.020-42.98-96-96-96s-96 42.98-96 96 42.98 96 96 96 96-42.98 96-96z" />
<glyph unicode="&#xf02c;" glyph-name="tags" horiz-adv-x="1280" d="M1251.882 372.354l-408.236-408.236c-37.492-37.492-98.276-37.49-135.764 0l-0.72 0.72 476.838 475.398-521.206 519.764h97.442c26.51 0 50.509-10.745 67.882-28.118l423.764-423.764c37.49-37.49 37.49-98.274 0-135.764zM995.882 372.354l-408.236-408.236c-18.744-18.746-43.314-28.118-67.882-28.118s-49.138 9.372-67.882 28.118l-423.764 423.764c-17.373 17.373-28.118 41.372-28.118 67.882v0 408.236c0 53.020 42.98 96 96 96h408.236c0 0 0.001 0 0.001 0 26.509 0 50.509-10.745 67.881-28.118l423.764-423.764c37.49-37.49 37.49-98.274 0-135.764zM928 440.236l-423.764 423.764h-408.236v-408.236l423.772-423.756 408.228 408.228zM288 768c-53.020 0-96-42.98-96-96s42.98-96 96-96 96 42.98 96 96-42.98 96-96 96z" />
<glyph unicode="&#xf02f;" glyph-name="print" d="M800 432c-26.5 0-48-21.48-48-48 0-26.5 21.5-48 48-48s48 21.5 48 48c0 26.52-21.5 48-48 48zM864 608v152.24c0 25.46-10.12 49.88-28.12 67.88l-103.76 103.76c-18 18-42.42 28.12-67.88 28.12h-443.28c-33.68 0-60.96-28.66-60.96-64v-288c-88.36 0-160-71.64-160-160v-256c0-17.68 14.32-32 32-32h128v-192c0-17.68 14.32-32 32-32h640c17.68 0 32 14.32 32 32v192h128c17.68 0 32 14.32 32 32v256c0 88.36-71.64 160-160 160zM256 864h384v-96c0-17.68 14.32-32 32-32h96v-128h-512v256zM768 32h-512v128h512v-128zM928 256h-832v192c0 35.28 28.72 64 64 64h704c35.28 0 64-28.72 64-64v-192z" />
<glyph unicode="&#xf03d;" glyph-name="video" horiz-adv-x="1152" d="M1087.8 768c-12.4 0-25-3.6-36.4-11.4l-219.4-136.8v116.6c0 52.8-46.4 95.6-103.6 95.6h-624.8c-57.2 0-103.6-42.8-103.6-95.6v-576.8c0-52.8 46.4-95.6 103.6-95.6h624.8c57.2 0 103.6 42.8 103.6 95.6v116.6l219.4-136.6c11.4-8 24.2-11.4 36.4-11.4 33.2 0 64.2 26 64.2 63v513.8c0 37-31 63-64.2 63zM736 560v-397.8c-1.2-0.8-3.6-2.2-7.6-2.2h-624.8c-4 0-6.4 1.2-7.6 2.2v571.6c1.2 0.8 3.6 2.2 7.6 2.2h624.8c4 0 6.4-1.2 7.6-2.2v-173.8zM1056 249.6l-224 139.6v117.4l224 139.6v-396.6z" />
<glyph unicode="&#xf03e;" glyph-name="image" d="M928 832h-832c-53.020 0-96-42.98-96-96v-576c0-53.020 42.98-96 96-96h832c53.020 0 96 42.98 96 96v576c0 53.020-42.98 96-96 96zM916 160h-808c-6.627 0-12 5.373-12 12v0 552c0 6.627 5.373 12 12 12v0h808c6.627 0 12-5.373 12-12v0-552c0-6.627-5.373-12-12-12v0zM256 656c-44.182 0-80-35.818-80-80s35.818-80 80-80 80 35.818 80 80-35.818 80-80 80zM192 256h640v160l-175.030 175.030c-9.372 9.372-24.568 9.372-33.942 0l-239.028-239.030-79.030 79.030c-9.372 9.372-24.568 9.372-33.942 0l-79.028-79.030v-96z" />
<glyph unicode="&#xf044;" glyph-name="edit" horiz-adv-x="1152" d="M835.6 329l40 40c7.6 7.6 20.4 2.2 20.4-8.4v-328.6c0-53-43-96-96-96h-704c-53 0-96 43-96 96v704c0 53 43 96 96 96h584.6c10.6 0 16-13 8.4-20.4l-40-40c-2.2-2.2-5.4-3.6-8.4-3.6h-544.6c-17.6 0-32-14.4-32-32v-704c0-17.6 14.4-32 32-32h704c17.6 0 32 14.4 32 32v288.6c0 3.2 1.2 6.2 3.6 8.4zM1127.4 711.4l-625-625-199.8-22.2c-26.8-3-49.4 19.6-46.4 46.4l22.2 199.8 625 625c32.8 32.8 86 32.8 118.8 0l105.2-105.2c32.8-32.8 32.8-86 0-118.8zM940.2 614.6l-133.4 133.4-467.2-467-16.6-150.2 150.2 16.6 467 467.2zM1082.2 785l-105.2 105.2c-7.6 7.6-20.4 8-28.2 0l-96.8-96.8 133.4-133.4 96.8 96.8c7.8 7.6 7.8 20.4 0 28.2z" />
<glyph unicode="&#xf04b;" glyph-name="play" horiz-adv-x="896" d="M848.8 530.6l-704 416.2c-57.2 33.8-144.8 1-144.8-82.6v-832.2c0-75 81.4-120.2 144.8-82.6l704 416c62.8 37 63 128.2 0 165.2zM96 53v790c0 9.2 10.2 15 18.2 10.4l668.4-395c7.8-4.6 7.8-16 0-20.6l-668.4-395.2c-8-4.6-18.2 1.2-18.2 10.4z" />
<glyph unicode="&#xf04c;" glyph-name="pause" horiz-adv-x="896" d="M384 802v-704c0-53-43-96-96-96h-192c-53 0-96 43-96 96v704c0 53 43 96 96 96h192c53 0 96-43 96-96zM288 110v680c0 6.6-5.4 12-12 12h-168c-6.6 0-12-5.4-12-12v-680c0-6.6 5.4-12 12-12h168c6.6 0 12 5.4 12 12zM896 802v-704c0-53-43-96-96-96h-192c-53 0-96 43-96 96v704c0 53 43 96 96 96h192c53 0 96-43 96-96zM800 110v680c0 6.6-5.4 12-12 12h-168c-6.6 0-12-5.4-12-12v-680c0-6.6 5.4-12 12-12h168c6.6 0 12 5.4 12 12z" />
<glyph unicode="&#xf053;" glyph-name="chevron-left" horiz-adv-x="512" d="M476.95 8.93l14.142 14.14c9.372 9.372 9.372 24.568 0 33.942l-390.986 390.988 390.986 390.988c9.372 9.372 9.372 24.568 0 33.942l-14.142 14.14c-9.372 9.372-24.568 9.372-33.94 0l-422.102-422.1c-9.372-9.372-9.372-24.568 0-33.942l422.102-422.1c9.372-9.372 24.568-9.372 33.94 0.002z" />
<glyph unicode="&#xf054;" glyph-name="chevron-right" horiz-adv-x="512" d="M49.414 883.798l-39.598-39.596c-9.372-9.372-9.372-24.568 0-33.942l361.398-362.26-361.398-362.26c-9.372-9.372-9.372-24.568 0-33.942l39.598-39.598c9.372-9.372 24.568-9.372 33.942 0l418.828 418.828c9.372 9.372 9.372 24.568 0 33.942l-418.828 418.828c-9.374 9.374-24.57 9.374-33.942 0z" />
<glyph unicode="&#xf055;" glyph-name="plus-circle" d="M768 480v-64c0-13.2-10.8-24-24-24h-176v-176c0-13.2-10.8-24-24-24h-64c-13.2 0-24 10.8-24 24v176h-176c-13.2 0-24 10.8-24 24v64c0 13.2 10.8 24 24 24h176v176c0 13.2 10.8 24 24 24h64c13.2 0 24-10.8 24-24v-176h176c13.2 0 24-10.8 24-24zM1008 448c0-274-222-496-496-496s-496 222-496 496 222 496 496 496 496-222 496-496zM912 448c0 221-179 400-400 400s-400-179-400-400 179-400 400-400 400 179 400 400z" />
<glyph unicode="&#xf057;" glyph-name="times-circle" d="M512 944c-274 0-496-222-496-496s222-496 496-496 496 222 496 496-222 496-496 496zM512 16c-237.4 0-432 192.2-432 432 0 237.4 192.2 432 432 432 237.4 0 432-192.2 432-432 0-237.4-192.2-432-432-432zM701.6 586.6l-138.6-138.6 138.6-138.6c9.4-9.4 9.4-24.6 0-34l-17-17c-9.4-9.4-24.6-9.4-34 0l-138.6 138.6-138.6-138.6c-9.4-9.4-24.6-9.4-34 0l-17 17c-9.4 9.4-9.4 24.6 0 34l138.6 138.6-138.6 138.6c-9.4 9.4-9.4 24.6 0 34l17 17c9.4 9.4 24.6 9.4 34 0l138.6-138.6 138.6 138.6c9.4 9.4 24.6 9.4 34 0l17-17c9.2-9.4 9.2-24.6 0-34z" />
<glyph unicode="&#xf058;" glyph-name="check-circle" d="M512 944c-273.934 0-496-222.066-496-496s222.066-496 496-496 496 222.066 496 496-222.066 496-496 496zM512 848c221.064 0 400-178.902 400-400 0-221.064-178.902-400-400-400-221.064 0-400 178.902-400 400 0 221.064 178.902 400 400 400zM792.408 587.466l-45.072 45.436c-9.334 9.41-24.53 9.472-33.94 0.136l-282.704-280.432-119.584 120.554c-9.334 9.41-24.53 9.472-33.94 0.138l-45.438-45.072c-9.41-9.334-9.472-24.53-0.136-33.942l181.562-183.032c9.334-9.41 24.53-9.472 33.94-0.136l345.178 342.408c9.408 9.336 9.468 24.532 0.134 33.942z" />
<glyph unicode="&#xf059;" glyph-name="question-circle" d="M512 944c-273.914 0-496-222.166-496-496 0-273.994 222.086-496 496-496s496 222.006 496 496c0 273.834-222.086 496-496 496zM512 48c-221.064 0-400 178.862-400 400 0 220.99 178.944 400 400 400 220.982 0 400-178.942 400-400 0-221.060-178.862-400-400-400zM726.488 558.4c0-134.104-144.842-136.168-144.842-185.726v-12.674c0-13.254-10.746-24-24-24h-91.294c-13.254 0-24 10.746-24 24v17.318c0 71.49 54.2 100.068 95.158 123.032 35.122 19.69 56.648 33.082 56.648 59.158 0 34.492-43.998 57.386-79.568 57.386-46.378 0-67.788-21.954-97.884-59.938-8.114-10.24-22.92-12.142-33.332-4.248l-55.648 42.196c-10.214 7.744-12.502 22.132-5.288 32.726 47.254 69.388 107.442 108.37 201.15 108.37 98.142 0 202.9-76.608 202.9-177.6zM596 224c0-46.318-37.682-84-84-84s-84 37.682-84 84 37.682 84 84 84 84-37.682 84-84z" />
</font>
</defs>
</svg>
